<?xml version="1.0" standalone="no"?>
<!DOCTYPE svg PUBLIC "-//W3C//DTD SVG 1.1//EN" "http://www.w3.org/Graphics/SVG/1.1/DTD/svg11.dtd" >
<svg xmlns="http://www.w3.org/2000/svg" xmlns:xlink="http://www.w3.org/1999/xlink" version="1.1">
<metadata></metadata>
<defs>
<font id="openweb_iconsregular" horiz-adv-x="1024" >
<font-face units-per-em="1024" ascent="1024" descent="0" />
<missing-glyph horiz-adv-x="500" />
<glyph unicode="&#x2000;" horiz-adv-x="512" />
<glyph unicode="&#x2001;" />
<glyph unicode="&#x2002;" horiz-adv-x="512" />
<glyph unicode="&#x2003;" />
<glyph unicode="&#x2004;" horiz-adv-x="341" />
<glyph unicode="&#x2005;" horiz-adv-x="256" />
<glyph unicode="&#x2006;" horiz-adv-x="170" />
<glyph unicode="&#x2007;" horiz-adv-x="170" />
<glyph unicode="&#x2008;" horiz-adv-x="128" />
<glyph unicode="&#x2009;" horiz-adv-x="204" />
<glyph unicode="&#x200a;" horiz-adv-x="56" />
<glyph unicode="&#x202f;" horiz-adv-x="204" />
<glyph unicode="&#x205f;" horiz-adv-x="256" />
<glyph unicode="&#x25fc;" horiz-adv-x="500" d="M0 0v0v0v0v0z" />
<glyph unicode="&#xf000;" d="M820 800q-1 -4 -3 -8q-3 -11 -9 -21q-7 -14 -16 -27q-12 -16 -26 -28q-17 -14 -38 -23q-23 -10 -49 -12q-30 -3 -64 4q-37 7 -79 26q-30 14 -33 16l-334 -137l335 -163l18 7q23 11 49 24q58 27 105 73q40 39 71 90q26 41 44 87q14 33 23 66zM503 727h1v0h-1zM153 517 v-348l312 -169v358zM847 517l-312 -159v-358l312 169v348z" />
<glyph unicode="&#xf001;" d="M271 799q-47 0 -86 -23t-62 -62t-23 -85v-459q0 -46 23 -85.5t62 -62.5t86 -23h458q47 0 86 23t62 62.5t23 85.5v459q0 46 -23 85t-62 62t-86 23h-458zM502 464q29 0 50 -21t21 -50.5t-21 -50.5t-50.5 -21t-50.5 21t-21 50.5t21 50.5t51 21z" />
<glyph unicode="&#xf002;" d="M272 798q-47 0 -86.5 -23t-62.5 -62.5t-23 -86.5v-456q0 -47 23 -86.5t62.5 -62.5t86.5 -23h456q47 0 86.5 23t62.5 62.5t23 86.5v456q0 47 -23 86.5t-62.5 62.5t-86.5 23h-456zM414 735q64 0 117 -30h1v0q60 -32 95.5 -91.5t34.5 -127.5v-1q1 -68 -35 -128l211 -210 l-87 -87l-210 210q-31 -18 -65 -27h-2v0q-44 -12 -90 -6t-87 27q-63 32 -98 91v0l-1 1v0q-29 47 -34.5 102t12 107.5t55.5 91.5l1 1q35 38 83 57.5t99 19.5zM414 660q-36 0 -70 -14t-58 -39l-1 -1q-26 -27 -38 -64t-8 -76.5t24 -70.5v-1q24 -41 69 -64q29 -15 61.5 -19 t62.5 5h1q36 9 66 34.5t47.5 61.5t17.5 73v1q0 46 -25.5 88.5t-66.5 64.5l-1 1q-36 20 -81 20z" />
<glyph unicode="&#xf003;" d="M271 798q-47 0 -86 -23t-62 -62.5t-23 -85.5v-459q0 -46 23 -85.5t62 -62t86 -22.5h458q47 0 86 22.5t62 62t23 85.5v459q0 46 -23 85.5t-62 62.5t-86 23h-458zM502 688q78 0 146 -40q66 -39 104 -104q40 -68 40 -147t-40 -146q-38 -66 -104 -105q-68 -40 -146.5 -40 t-146.5 40q-66 39 -104 105q-40 67 -40 146t40 147q38 65 104 104q68 40 147 40zM502 600q-56 0 -102.5 -27.5t-74 -74t-27.5 -101.5t27.5 -101.5t74 -74t102 -27.5t102 27.5t74 74t27.5 101.5t-27.5 101.5t-74 74t-101.5 27.5zM502 462q29 0 50 -21t21 -50.5t-21 -50.5 t-50.5 -21t-50.5 21t-21 50.5t21 50.5t51 21z" />
<glyph unicode="&#xf004;" d="M164 786q-22 0 -37 -15t-14 -36v-673q0 -21 14.5 -36t36.5 -15h672q22 0 37 15t15 36v673q-1 21 -15.5 36t-36.5 15h-672zM483 703q78 0 146 -40q65 -38 103 -103q40 -68 40 -146v-290l-289 1q-79 0 -146 39q-66 39 -104 104q-39 67 -39 145.5t39 146.5q38 65 104 103 q67 40 146 40zM483 576q-45 0 -82 -22t-59 -59t-22 -81.5t22 -81.5t59 -59t81.5 -22t81.5 22t59 59t22 81.5t-22 81.5t-59 59t-81 22z" />
<glyph unicode="&#xf005;" d="M500 797q-109 0 -202 -55q-90 -53 -143 -143q-55 -93 -55 -202t55 -202q53 -90 143 -143q93 -54 202 -54l400 -1v400q0 109 -55 202q-53 90 -143 143q-93 55 -202 55zM500 621q61 0 112.5 -30t82 -81.5t30.5 -112.5t-30.5 -113t-82 -82t-112.5 -30t-112.5 30t-82 82 t-30.5 113t30.5 112.5t82 81.5t112.5 30z" />
<glyph unicode="&#xf006;" d="M271 798q-47 0 -86 -23t-62 -62t-23 -86v-458q0 -47 23 -86t62 -62t86 -23h458q47 0 86 23t62 62t23 86v458q0 47 -23 86t-62 62t-86 23h-458zM672 673q40 0 68.5 -28t28.5 -68t-28.5 -68.5t-68.5 -28.5q-35 0 -62 23l-186 -95v-8q0 -8 -1 -15l184 -94q28 25 65 25 q40 0 68.5 -28.5t28.5 -68.5t-28.5 -68t-68.5 -28t-68 28t-28 68v6l-191 97q-25 -19 -57 -19q-40 0 -68.5 28.5t-28.5 68.5t28.5 68t68.5 28q35 0 62 -23l186 95v9q0 40 28 68t68 28z" />
<glyph unicode="&#xf007;" d="M751 798q-39 0 -71 -19t-51 -51t-19 -71l1 -12l-271 -138q-39 33 -91 33q-38 0 -70 -18.5t-51 -51t-19 -70.5t19 -70.5t51 -51t70 -18.5q47 0 84 27l277 -141v-8q0 -38 19 -70.5t51 -51t70.5 -18.5t70.5 18.5t51 51t19 70.5t-19 70.5t-51 51t-70 18.5q-27 0 -51.5 -9.5 t-43.5 -26.5l-268 136q2 11 2 22l-1 12l271 138q39 -33 91 -33q38 0 70 19t51 51t19 70.5t-19 70.5t-51 51t-70 19z" />
<glyph unicode="&#xf008;" d="M504 796q-16 0 -33 -1q-33 -2 -70 -11q-35 -9 -60 -20q-38 -17 -77 -44q-44 -31 -78 -75t-55 -96l-5 -12q-9 -22 -12 -33q-13 -45 -13 -98q0 -49 9 -93q22 -100 82 -171q52 -62 139 -108q48 -25 109.5 -33.5t124.5 1t115 35.5q90 46 152 139q31 46 48 100q19 60 19 124 q0 57 -21 119q-17 52 -46 97q-51 81 -128 127q-88 53 -200 53zM470 606h54q16 0 29 -9.5t18 -24.5l106 -320q7 -20 -2.5 -38.5t-28.5 -24.5q-8 -2 -16 -2q-16 0 -29 9t-18 25l-23 73h-120l-23 -73q-5 -15 -18 -24.5t-29 -9.5q-8 0 -15 2q-20 6 -29.5 24t-3.5 38l101 320 q5 16 18 25.5t29 9.5z" />
<glyph unicode="&#xf009;" d="M258 849q-50 0 -92 -24.5t-66.5 -66.5t-24.5 -92v-484q0 -50 24.5 -92t66.5 -66.5t92 -24.5h484q50 0 92 24.5t66.5 66.5t24.5 92v484q0 50 -24.5 92t-66.5 66.5t-92 24.5h-484zM221 723q116 0 222.5 -44.5t188.5 -126t126 -188.5t44 -222h-116q0 92 -35.5 177.5 t-101 151t-150.5 101t-178 35.5v116zM221 527q77 0 147.5 -29.5t125 -83.5t83.5 -125t29 -147h-113q0 53 -21 103.5t-58.5 88.5t-88 59t-104.5 21v113zM299 301h1h1q33 0 56 -23.5t23 -56.5t-23 -56t-56 -23t-56.5 23t-23.5 56t22.5 56t55.5 24z" />
<glyph unicode="&#xf00a;" d="M75 849v-170q135 0 260 -52t220.5 -147.5t147.5 -220.5t52 -260h170q0 169 -64.5 325t-184.5 275.5t-276 184.5t-325 65zM75 562v-165q79 0 152.5 -30.5t129.5 -86.5t86 -129t30 -152h165q0 112 -42.5 215.5t-122 182.5t-183 122t-215.5 43zM192 232q-32 0 -59 -16 t-42.5 -42.5t-15.5 -58.5t15.5 -58.5t42.5 -42t58.5 -15.5t58.5 15.5t42.5 42t15.5 58.5t-15.5 58.5t-42.5 42.5t-58 16z" />
<glyph unicode="&#xf00b;" d="M256 798q-42 0 -78 -21t-57 -57t-21 -78v-488q0 -42 21 -78t57 -57t78 -21h488q42 0 78 21t57 57t21 78v488q0 42 -21 78t-57 57t-78 21h-488zM623 712q15 0 26 -10l150 -151q12 -11 12 -26.5t-11 -26.5t-27 -11t-27 11l-17 17l-116 -115q14 -43 4 -87t-43 -76l-238 239 q32 32 75.5 42t86.5 -3l116 115l-18 19q-11 11 -11 26t11 26t27 11zM188 412q55 1 107.5 -17.5t95.5 -54.5l-130 -131q-10 -11 -10 -26t11 -26t26 -11t26 10l129 129q35 -47 50 -103t9 -113h-209q-33 -1 -60 15t-43 43.5t-16 59.5v225h14z" />
<glyph unicode="&#xf00c;" d="M605 797q-12 0 -20.5 -8.5t-8.5 -20.5v-271q0 -12 8.5 -20.5t20.5 -8.5h277q12 0 20.5 8.5t8.5 20.5v271q0 12 -8.5 20.5t-20.5 8.5h-277zM428 767q-42 -1 -70.5 -30.5t-28.5 -70.5v-318q0 -42 29.5 -71.5t71.5 -29.5h318q42 0 71.5 29.5t29.5 71.5v77h-244q-30 0 -51 21 t-21 51v270h-105zM212 662q-33 0 -61.5 -16.5t-45 -44.5t-16.5 -61v-420q0 -33 16.5 -61.5t45 -45t61.5 -16.5h421q33 0 61.5 16.5t45 45t16.5 61.5v84h-326q-39 0 -72.5 19.5t-52.5 52.5t-19 72v314h-74z" />
<glyph unicode="&#xf00d;" d="M585 738l-121 -60v-606q-69 9 -124.5 35.5t-87 65t-31.5 83.5q0 42 28.5 79.5t79 63.5t113.5 37v77q-97 -11 -175 -48t-122 -91q-45 -55 -45 -118q0 -65 49 -122q47 -55 130 -91.5t185 -45.5l121 57v684zM606 513v-77q71 -12 125 -43l-65 -37l234 -51l-17 173l-62 -35 q-91 55 -215 70z" />
<glyph unicode="&#xf00e;" d="M271 797q-47 0 -86 -23t-62 -62.5t-23 -85.5v-459q0 -46 23 -85t62 -62t86 -23h458q47 0 86 23t62 62t23 85v459q0 46 -23 85.5t-62 62.5t-86 23h-458zM500 636q72 0 132 -39q8 -6 13 -14.5t5 -18.5q0 -16 -11 -27.5t-27 -11.5q-12 0 -22 7v0q-41 27 -90 27 q-57 0 -100.5 -34.5t-56.5 -88.5l-1 -4q-4 -11 -14 -18.5t-23 -8.5h-129v77h100q26 69 87 111.5t137 42.5zM500 490q38 0 65 -27t27 -65t-27 -65t-65 -27t-65.5 27t-27.5 65t27.5 65t65.5 27zM695 390h129v-77h-101q-26 -68 -87 -111t-136 -43q-72 0 -132 40q-17 12 -17 32 q0 16 11 27.5t27 11.5q12 0 22 -7q40 -27 89 -27q56 0 100 35t57 88v0l1 4q3 11 13.5 19t23.5 8v0z" />
<glyph unicode="&#xf00f;" d="M500 732q-77 0 -148 -30q-68 -30 -119.5 -84t-77.5 -123h-155v-119h200q19 1 34.5 12.5t21.5 28.5l1 7q13 54 48.5 97.5t86 68t108.5 24.5q77 0 140 -43v0q15 -10 33 -10q24 0 41.5 17.5t17.5 42.5q0 15 -7.5 29t-21.5 21q-92 61 -203 61zM500 507q-39 0 -71.5 -19.5 t-52 -52t-19.5 -71t19.5 -71.5t52 -52t71.5 -19t71.5 19t52 52t19.5 71.5t-19.5 71t-52 52t-71.5 19.5zM801 353v0q-20 0 -36 -12.5t-21 -29.5l-1 -6v0q-13 -54 -48.5 -97.5t-86 -68t-108.5 -24.5q-75 0 -137 41q-15 10 -34 10q-24 0 -41.5 -17t-17.5 -42q0 -15 7 -28 t19 -21v0q93 -61 204 -61q77 0 148 30q68 30 119.5 84t77.5 123h155v119h-199z" />
<glyph unicode="&#xf010;" d="M251 798h-4h-8l-18 -3l-15 -4l-20 -8l-16 -9l-15 -10q-13 -11 -23 -24l-4 -5q-4 -7 -8 -13l-5 -9l-8 -21l-4 -14v0q-2 -12 -3 -23v-514l1 -11l4 -19q2 -9 5 -17l8 -17q9 -16 21 -29l3 -3q7 -8 16 -15l6 -4q7 -5 15 -10l17 -7l25 -8l22 -3h514l19 2l11 3q9 2 17 6l10 4 q12 6 22 13l6 4q9 7 16 15l3 3q13 14 22 32l7 14q3 8 5 17l4 19q1 9 1 19v502q0 10 -2 19l-1 8l-4 14v0q-2 9 -6 17l-7 13l-8 12l-4 6q-10 13 -23 24l-6 4l-15 10l-13 7q-8 4 -17 6l-15 4l-18 3h-8h-502zM393 644q28 0 58 -8q18 -4 50 -16l12 -4q35 -13 52 -17q28 -6 55 -3 q31 3 68 19q20 8 37.5 4t24.5 -21.5t0 -35.5t-25 -26q-64 -27 -122 -27q-25 0 -51 8q-16 5 -45 17l-24 9q-34 12 -51 16q-27 5 -52 1q-29 -5 -64 -25q-19 -9 -37 -7t-27 18.5t-3.5 35t22.5 28.5q63 34 122 34zM387 464h3q28 0 57 -8q18 -4 49 -16l13 -4q35 -13 53 -17 q29 -6 56 -3q33 4 72 21q19 9 36.5 5t25 -21t0.5 -35t-24 -26q-68 -30 -129 -30q-25 0 -52 7q-16 5 -45 17l-24 9q-34 13 -50 16q-26 5 -51 1q-29 -5 -64 -23q-18 -10 -36 -7.5t-27 19t-3.5 35t22.5 27.5q61 33 118 33zM384 286q27 0 57 -8q17 -5 49 -16l12 -5 q37 -13 55 -17q29 -6 58 -2q33 4 74 23q19 9 36.5 5.5t25.5 -20.5t1.5 -34.5t-23.5 -25.5q-73 -34 -137 -34q-25 0 -51 8q-16 5 -45 17l-24 9q-32 12 -48 15q-26 6 -50 2q-28 -4 -62 -21q-18 -9 -36 -6.5t-26.5 19.5t-2.5 35t23 27q56 28 109 29h5z" />
<glyph unicode="&#xf011;" d="M455 798q-22 0 -40 -8q-26 -10 -40 -32.5t-15 -53.5q-1 -52 36 -107l1 -1q-22 46 -13 85t45 54q27 10 62 2.5t68.5 -31.5t56.5 -58q27 -40 30.5 -79.5t-16.5 -64.5q25 16 34.5 46t1.5 66.5t-33 73.5q-33 49 -82.5 78.5t-95.5 29.5zM505 656q-19 0 -35 -12t-22 -31.5 t1 -38.5l-104 -76q7 -6 12 -13t8 -15l104 76q16 -13 36.5 -13t37.5 12q21 15 25 40t-11 46q-9 12 -22 18.5t-27 6.5h-3zM820 643q-23 0 -47 -12q-47 -24 -78 -83q30 41 68.5 51t68.5 -15q22 -19 31.5 -53.5t4 -75t-24.5 -77.5q-14 -25 -32 -44l1 -2q10 -8 18 -19 q34 25 57 68.5t29.5 90.5t-4.5 87.5t-37 62.5q-24 21 -55 21zM298 608q-49 0 -100 -32q-42 -25 -71 -62.5t-40 -77.5t0 -73q9 -26 31 -41.5t52 -17.5q53 -3 109 31l1 1q-47 -20 -85.5 -9.5t-51.5 47.5q-9 28 0 62.5t34.5 67t60.5 53.5q42 25 81.5 27t63.5 -19q-12 20 -33 31 t-49 12h-3zM525 512q-17 -4 -34 0v-87q-10 -3 -19 -9q-21 -15 -25 -40t11 -46q12 -17 31.5 -23t38.5 1l67 -92q-8 -9 -11 -21l-1 -4l-1 -15l2 -16q3 -9 9 -18q15 -20 40.5 -24t46 11t24.5 40t-11 46q-9 12 -21.5 18.5t-27.5 6.5q-11 0 -21 -3l-67 91q13 16 13.5 36.5 t-12 37.5t-32.5 23v87zM725 498q-19 -1 -35 -12q-12 -9 -19 -22.5t-6 -28.5l-84 -27q9 -16 11 -33l52 17l32 8q15 -21 40.5 -25t46 11t24.5 40.5t-11 45.5q-9 12 -21.5 19t-27.5 7h-2zM287 497q-19 -1 -35 -12q-21 -15 -25 -40t11 -46t40.5 -25t46 11t24.5 40t-11 46 q-9 12 -22 18.5t-27 7.5h-2zM728 335q-7 -1 -15 -1q-52 -7 -101 -52v0q42 28 82 25t59 -37q15 -26 12 -61.5t-21.5 -72t-49.5 -64.5q-36 -32 -74.5 -41t-66.5 7q20 -23 50.5 -28t66 8.5t68.5 42.5q35 33 57 75t25.5 83.5t-14.5 71.5q-12 22 -32.5 33t-45.5 11zM445 309 l-38 -54q16 -7 28 -20l39 54q-17 7 -29 20zM266 290h-5q-10 -1 -19 -2q-30 -5 -50.5 -22.5t-27.5 -44.5q-7 -34 7.5 -72.5t47.5 -73t77 -55.5q39 -19 76.5 -21.5t66 11t40.5 40.5q-22 -24 -61.5 -26t-83.5 19q-37 18 -65.5 47.5t-41 63t-5.5 62.5q8 37 45.5 51.5t86.5 -0.5 l-1 1q-45 21 -87 22zM371 239q-19 0 -34 -11q-21 -15 -25 -40.5t11 -46t40 -24.5t46 11q17 12 23 32h129l-2 22q0 6 1 13h-128q-3 10 -9 19l-10 10l-20 12q-10 3 -19 3h-3z" />
<glyph unicode="&#xf012;" d="M635 783q-8 0 -68 -29q-25 -12 -53.5 -28t-43.5 -26q-20 -14 -27 -17q-10 -4 -22 -2q-8 2 -34 11v0q-19 7 -34.5 11t-18 2.5t-4 -9.5t-1.5 -18q0 -23 -11 -75q-5 -22 -18 -59t-28 -70q-36 -77 -44 -103q-4 -12 -5.5 -33.5t-0.5 -44.5q2 -30 7 -49t18 -45q9 -18 26 -40.5 t31 -37t33.5 -31t32.5 -25.5q31 -21 77 -44.5t54 -23.5q4 0 21 7.5t37.5 18t47.5 27.5t43.5 30.5t36.5 33t31 33.5q26 35 36 55q5 9 10.5 28.5t8.5 38.5q5 26 5 45t-5 48q-8 48 -44 125q-15 32 -31.5 74t-25 68.5t-16 58.5t-9.5 51q-2 26 -7 38v0q3 0 4 0.5t0 1.5t-5 0 q-2 4 -4 4z" />
<glyph unicode="&#xf013;" d="M521 798q-94 -2 -176 -43q-65 -33 -115.5 -88.5t-76.5 -123.5q27 8 55.5 5t54.5 -16q30 57 76 94q37 30 82 47t92 19q55 3 108.5 -16t95.5 -55q34 -29 58.5 -69t35.5 -85q26 -7 42 -30t12 -48q-3 -22 -17.5 -38.5t-35.5 -21.5q-15 -50 -32 -78q-31 -55 -83.5 -93 t-113.5 -50q-42 -8 -85 -4t-83 20q-49 20 -88.5 56t-63.5 83q-25 -13 -53.5 -16t-56.5 5q32 -83 98.5 -145.5t150.5 -89.5q67 -22 139.5 -19t137.5 30t117.5 76t84.5 112q30 58 39.5 124t-2.5 130t-43.5 121t-78.5 100q-42 40 -94.5 66t-110.5 35q-34 6 -71 6h1zM192 516 q-13 -1 -27 -3q-24 -6 -44 -21.5t-32 -37.5q-18 -31 -12 -79q5 -26 21.5 -48.5t40.5 -34.5q36 -19 78.5 -10t67.5 42q17 20 23 46.5t0 54t-25.5 50.5t-46.5 33q-21 8 -44 8zM451 478q-11 0 -22 -3q-21 -6 -37 -23t-20 -38q-5 -19 -0.5 -38.5t17.5 -35t32 -23t38 -5.5 q24 1 43.5 16t28.5 37.5t3 45.5q-4 29 -29 48.5t-54 18.5zM640 461q-7 0 -15 -1q-22 -6 -36.5 -24t-14.5 -40t13.5 -41t34.5 -24q14 -5 29.5 -2.5t28.5 11.5t20.5 24t7.5 31q0 20 -11.5 37.5t-30.5 24.5q-11 5 -26 4zM794 439q-8 0 -15 -2q-12 -4 -22 -18.5t-6 -33.5 t18.5 -28t31.5 -6.5t28 15.5t9.5 32.5t-15.5 30.5q-11 10 -29 10zM871 54l-13 -53h8l7 29v3l2 -3l16 -30l16 30l1 3l7 -32h9l-14 53l-19 -39zM814 52v-7h15v-44h9v44h15v7h-39z" />
<glyph unicode="&#xf014;" d="M198 595q-13 0 -21 -7t-8 -22v-136h-140q-15 0 -22 -8t-7 -21v-21q0 -13 7 -21t22 -8h140v-135q0 -9 6.5 -15.5t15.5 -6.5h107q3 0 7.5 3.5t4.5 9.5v49h-54q-12 0 -16 6t-4 19v227q0 13 4 19t16 6h54v50q0 5 -4.5 8.5t-7.5 3.5h-100zM702 595q-3 0 -7.5 -3.5t-4.5 -8.5 v-50h54q12 0 16 -6t4 -19v-227q0 -13 -4 -19t-16 -6h-54v-49q0 -6 4.5 -9.5t7.5 -3.5h107q9 0 15.5 6.5t6.5 15.5v135h140q15 0 22 8t7 21v21q0 13 -7 21t-22 8h-140v136q0 15 -8 22t-21 7h-100zM280 500q-5 0 -8 -3.5t-3 -8.5v-191q0 -5 3 -8.5t8 -3.5h220v54l-54 54l54 53 v54h-220zM533 500v-54l-54 -53l54 -54v-54h187q5 0 8 3.5t3 8.5v191q0 5 -3 8.5t-8 3.5h-187zM382 430q15 0 25 -10.5t10 -25t-10 -24.5t-24.5 -10t-25 10t-10.5 24.5t10.5 25t24.5 10.5zM618 430q14 0 24.5 -10.5t10.5 -25t-10.5 -25t-25 -10t-24.5 10.5t-10 24.5t10 25 t25 10.5z" />
<glyph unicode="&#xf015;" d="M0 733q3 -116 64 -237q57 -115 157 -218q98 -100 218 -170q-86 -67 -181 -91l-1 -14q42 5 83 16l5 1q77 18 155 55q27 -14 51 -24q99 -45 204 -54v15q-101 25 -190 97q119 69 216 169q99 102 156 217q60 121 63 238l-130 -50l-45 -15l-130 -39q1 -12 1 -22 q0 -109 -51 -228q-53 -121 -142 -213q-86 92 -137 211q-50 117 -50 224q0 13 1 23l-130 38l-42 15z" />
<glyph unicode="&#xf016;" d="M148 798l64 -720l288 -80l288 79l65 721h-705zM279 650h221h221l-8 -88h-338l8 -90h322l-24 -271l-181 -51l-181 51l-13 141h89l7 -73l98 -27l98 27l11 114h-306z" />
<glyph unicode="&#xf017;" d="M190 798l-30 -149h604l-19 -96h-604l-30 -148h604l-33 -169l-244 -81l-211 81l15 73h-149l-35 -178l349 -133l402 133l133 667h-752z" />
<glyph unicode="&#xf018;" d="M-33 798l132 -132v0h274l96 -97l-141 -141l-97 96v75h-132v-130l229 -229l-93 -93l149 -149h649l-132 131h-462l-110 111l47 46l91 -91h188l-185 185l47 48l185 -185v187l-91 91l46 47l-229 230h-461zM752 663l-94 -94l110 -110v-263h133v317z" />
<glyph unicode="&#xf019;" d="M500 797l-400 -202v-133l400 202l400 -202v133zM500 565l-400 -202v-133l400 202l400 -202v133zM500 333l-400 -202v-133l400 202l400 -202v133z" />
<glyph unicode="&#xf020;" d="M499 779q-3 0 -162 -92l-159 -92l-17 10q-19 10 -24 14q-7 5 -8.5 10.5t-2 19t-2.5 20.5t-8 15q-20 26 -52.5 26t-51.5 -25q-15 -20 -11.5 -47t23.5 -42q12 -10 33 -12t34 5q9 4 14 2.5t27 -13.5l29 -17v-368l339 -196l11 6q75 44 191.5 110.5t120 66.5t27.5 -14l23 -13 v-20q0 -27 15 -44.5t41 -21.5q21 -2 39 9t26.5 30.5t3.5 39.5q-8 30 -35.5 43t-54.5 0q-8 -4 -13.5 -2.5t-26.5 12.5l-28 16v370l-170 98q-169 97 -171 96zM480 710v-96v-96h-8q-38 2 -64.5 6.5t-26.5 8t12 32.5t19.5 45t27.5 46t31 43zM526 700q3 0 8 -6q4 -5 14 -20l5 -7 q20 -29 45 -81t20 -56q-1 -2 -22.5 -5t-48.5 -5l-26 -3v112v54q1 17 5 17zM590 684l25 -15q55 -31 107 -61.5t52 -32.5t-32 -13q-81 -30 -84 -21q-17 48 -28 72t-28 51zM407 680v-0.5t-9 -14.5q-11 -18 -25.5 -48t-22.5 -53q-10 -28 -11 -28l-30 9q-27 8 -54.5 18 t-27.5 12.5t90 54.5q85 49 90 50zM65 671q7 0 13.5 -4.5t9.5 -12t-1.5 -18.5t-12.5 -13q-22 -9 -33 12q-3 7 -3.5 11t3 10.5t10 10.5t14.5 4zM201 540q4 0 31.5 -11t61.5 -21t35 -10.5t-3 -29.5l-8 -61h-58q-58 0 -60.5 3t-2 66.5t3.5 63.5zM795 539q3 0 4 -11t1 -54v-67 h-59q-58 0 -60.5 2.5t-2.5 19.5t-4 43l-5 26l18 5q19 5 59 19zM630 490l4 -24q4 -24 5 -40l1 -17l-75 -2l-6 11q-4 8 -17 20.5t-18 12.5q-1 0 -2 4.5t-1 10.5v15h24q25 0 55 5zM375 487q9 0 31 -2q32 -4 53 -4h21v-14q0 -9 -2.5 -13t-11.5 -9q-6 -4 -12.5 -11t-9.5 -12 l-8 -15h-78l3 25q2 20 5 36.5t5 18.5h4zM500 415q9 0 16 -5.5t8.5 -13.5t-2.5 -17t-11 -12q-9 -4 -12 -3q-15 2 -21 15t0.5 24.5t21.5 11.5zM318 371l2 -16l6 -45q3 -22 1 -28.5t-11 -6.5q-5 0 -42.5 -12t-56.5 -20l-20 -8l2 134zM800 371v-68q0 -68 -1 -68l-11 5 q-8 5 -46 18t-56 17l-16 4l3 21q3 21 5 45l2 24zM383 371h5h48l8 -13q3 -6 9.5 -12.5t12.5 -10.5q9 -6 11.5 -10t2.5 -13v-14l-39 -2q-40 -3 -55 -6h-2q-9 -2 -12 -1t-4.5 7.5t-3.5 26.5l-3 15q-2 18 -1.5 23.5t5 7.5t18.5 2zM565 371h36q37 0 38.5 -3t-2 -32t-6.5 -39 l-2 -9l-31 4q-32 5 -54 5h-23v14q0 10 2 14t12 10q6 4 12.5 10.5t9.5 12.5zM480 260v-95q0 -95 -2.5 -95t-27 36t-35.5 59q-15 28 -25 54.5t-8 28.5t26 5t49 5zM521 260l23 -2q20 -1 46.5 -5t28.5 -5.5t-14.5 -40t-28.5 -60.5q-19 -31 -37 -55l-18 -24v192zM340 242l8 -25 q17 -50 44 -94q15 -25 14 -26t-89.5 50.5t-89 54t27.5 13t59 19.5zM663 240q4 0 22 -5q24 -7 56.5 -19t32.5 -14t-23 -16l-90 -51q-67 -39 -67 -36.5t8 13.5q12 18 29.5 57t26.5 67q1 4 5 4zM935 158q10 0 17.5 -8t8 -18.5t-7 -18t-18 -7t-18 7.5t-7.5 17q0 8 8.5 17.5 t16.5 9.5z" />
<glyph unicode="&#xf021;" d="M500 797q-19 0 -32 -13l-355 -354q-13 -14 -13 -33t13 -32l355 -354q13 -14 32 -14t32 14l355 354q13 13 13 32t-13 33l-52 51l-335 -335l-251 251l251 252l84 -84l-168 -168l84 -83l251 251l-219 219q-13 13 -32 13z" />
<glyph unicode="&#xf022;" d="M100 798v-54v-320h373v374h-373zM527 798v-54v-320h373v374h-373zM153 744h54h213v-266h-267v266zM580 744h53h214v-266h-267v266zM207 691v-53v-107h160v160h-160zM633 691v-53v-107h160v160h-160zM100 371v-53v-320h373v373h-373zM687 371v-53v-54h106v54h-53v53h-53z M687 264h-54h-106v-106h53v-54h-53v-53h53v-53h107v160h-54v53h54v53zM153 318h54h213v-267h-267v267zM207 264v-53v-107h160v160h-160zM847 264v-53h-54v-160h-53v-53h107v53h53v213h-53z" />
<glyph unicode="&#xf023;" d="M315 835q-78 0 -144 -39q-64 -37 -102 -102q-39 -66 -39 -142.5t37 -141.5q36 -64 99 -102.5t138 -41.5q13 -65 53 -117.5t99 -81.5q60 -30 128 -30q77 0 143 39q65 37 103 102q38 66 38 142.5t-37 141.5q-36 64 -99 102.5t-138 41.5q-13 65 -53 117t-98 82 q-60 30 -128 30zM315 785q63 0 117 -31.5t85.5 -85.5t31.5 -117.5t-31.5 -117.5t-85.5 -85.5t-117.5 -31.5t-117.5 31.5t-85.5 85.5t-31.5 117.5t31.5 117.5t85.5 85.5t118 31.5zM227 636q-24 0 -40.5 -17t-16.5 -40.5t16.5 -40.5t40.5 -17t40.5 17t16.5 40.5t-16.5 40.5 t-40.5 17zM402 636q-24 0 -41 -17t-17 -40.5t17 -40.5t40.5 -17t40.5 17t17 40.5t-17 40.5t-40 17zM599 555q61 -4 111 -36t79 -84.5t29 -113.5q0 -63 -31.5 -117t-85.5 -85.5t-117 -31.5q-55 0 -103 23.5t-81 65t-45 93.5q56 8 104 36q16 -13 37 -13q24 0 40.5 17t16.5 40 q0 18 -9 32q26 36 40.5 79.5t14.5 89.5v5zM671 406q-24 0 -41 -16.5t-17 -40t17 -40.5t40.5 -17t40.5 17t17 40.5t-17 40t-40 16.5z" />
<glyph unicode="&#xf024;" d="M121 732q-33 0 -60.5 -15.5t-44 -41.5t-16.5 -58v-436q0 -31 16.5 -57t44 -41.5t60.5 -15.5h758q33 0 60.5 15.5t44 41.5t16.5 57v437q0 31 -16.5 57t-44 41.5t-60.5 15.5h-758zM120 632h760q6 0 11 -4.5t5 -10.5v-436q0 -6 -5 -10.5t-11 -4.5h-461q-7 0 -11.5 4.5 t-4.5 10.5v178q0 25 -13 47t-35.5 35t-48.5 13h-48q-17 0 -29 -13t-12 -29t12 -27t28 -11h49q7 0 11.5 -4.5t4.5 -10.5v-178q0 -6 -4.5 -10.5t-11.5 -4.5h-186q-7 0 -11.5 4.5t-4.5 10.5v436q0 6 4.5 10.5t11.5 4.5zM353 590q-23 0 -39 -15t-16 -36.5t16 -38.5t38.5 -17 t38.5 17t16 38.5t-16 36.5t-38 15z" />
<glyph unicode="&#xf025;" d="M37 765q-16 0 -26.5 -11t-10.5 -26v-694q0 -15 10.5 -25.5t26.5 -10.5h623q4 0 11 11v-11l329 383l-329 384v-12q-8 12 -11 12h-623zM110 649h137v-524h-137v524zM347 649h185q35 0 60 -5q37 -8 65 -28q44 -30 65 -84.5t21 -135.5q0 -67 -12 -113q-14 -55 -48 -95 q-26 -32 -59 -47q-36 -16 -87 -16h-190v524zM482 538v-301h45q22 0 34 10q16 13 24 47q10 38 10 107q0 58 -10 89q-8 29 -25 40q-14 8 -37 8h-41z" />
<glyph unicode="&#xf026;" d="M477 849l-184 -107l-127 -73l86 -50l84 49l141 81l141 -81l140 -82l-281 -161l-368 211v-262l85 -49l283 -163l184 107l98 56v-66l-282 -162l-368 211v-97l184 -107l184 -105l368 212v261l-368 -210l-283 161v66l283 -163l368 213v97l-184 106z" />
<glyph unicode="&#xf027;" d="M37 764q-16 0 -26.5 -10.5t-10.5 -26.5v-694q0 -15 10.5 -25.5t26.5 -10.5h634l329 383l-329 384h-634zM411 629q41 0 70 -32t32 -84q8 -13 8 -26q0 -21 -17 -38q-13 -45 -42 -70v-33l1 -1q10 -6 31 -12q31 -8 59 -19q20 -8 34 -32q12 -20 20 -50q6 -21 9 -45l2 -19 l-19 -2q-27 -2 -66 -3q-54 -2 -122.5 -2t-122.5 2q-39 1 -66 3l-19 2l2 19q4 24 9 45q8 30 20 50q15 24 34 32q29 11 60 19q20 6 30 12l2 1v33q-29 25 -43 70q-16 17 -16 38q0 13 8 26q2 52 31 84t71 32z" />
<glyph unicode="&#xf028;" d="M242 798q-54 -9 -93.5 -49t-48.5 -94v-515q9 -53 48 -92t91 -49l4 -1h515l3 1q53 10 91.5 49.5t47.5 92.5v515q-9 53 -49 93t-94 49h-515zM802 699v-38v-38q-106 -1 -284 0l1 75zM481 698q1 -25 1 -75h-282v75h281zM660 586h142v-76h-284v76h142zM482 586v0v-76l-282 1 v74zM554 474q55 0 165 -1h82v-76l-283 -1v78h36zM482 474v-26v-52h-282v77h282v1zM518 359h121h162q1 -18 0 -55v-20h-282zM311 324q25 0 48.5 -10.5t39.5 -29.5q22 -25 25 -59.5t-12 -66t-45 -46.5q-28 -16 -62.5 -13.5t-62 22.5t-36.5 52q-12 29 -5 61t29 55.5t53 30.5 q14 4 28 4z" />
<glyph unicode="&#xf029;" d="M922 705q-1 0 -2 -1h-11v0h-836q-18 0 -33.5 -8.5t-25.5 -22.5q-17 -26 -13 -57v-461q1 -18 11 -32.5t24 -22.5q25 -14 55 -10v-1l843 1q18 1 32.5 11t22.5 24q14 24 10 55h1l-1 459q-1 17 -11 31.5t-24 23.5q-19 10 -42 11zM918 657h2q12 0 20 -5q6 -3 8.5 -6.5 t2.5 -9.5l1 -456v-3q2 -16 -5 -29q-3 -5 -6.5 -7.5t-9.5 -2.5l-840 -1h-3q-16 -2 -28 5q-6 3 -8.5 6.5t-2.5 9.5v458l-1 4q-2 14 5.5 25t18.5 11h837zM145 560v-327h96v188l96 -120l96 120v-188h96v327h-96l-96 -120l-96 120h-96zM697 560v-168h-96l144 -159l144 159h-96 v168h-96z" />
<glyph unicode="&#xf030;" d="M132 847q-36 0 -60.5 -24.5t-24.5 -60t24.5 -60.5t60.5 -25h736q36 0 60.5 25t24.5 60.5t-24.5 60t-60.5 24.5h-736zM132 621q-36 0 -60.5 -25t-24.5 -60.5t24.5 -60t60.5 -24.5h628q35 0 60 24.5t25 60t-25 60.5t-60 25h-628zM129 394q-34 -1 -58 -25.5t-24 -59.5 t24.5 -60t60.5 -25h700q35 0 60 25t25 60t-25 60t-60 25h-703zM132 167q-36 0 -60.5 -24.5t-24.5 -60t24.5 -60.5t60.5 -25h374q35 0 60 25t25 60.5t-25 60t-60 24.5h-374z" />
<glyph unicode="&#xf031;" d="M137 803l172 -172h-233v-628h307l117 117l117 -117h307v628h-233l172 172h-184l-178 -179l-179 179h-185zM207 500h587v-367h-122l-172 171l-171 -171h-122v367z" />
<glyph unicode="&#xf032;" d="M75 795l-97 -96v-704h1044v638h-163v-475h-718v473l164 164h-230zM433 795l-163 -162h231l163 162h-231zM791 795l-163 -162h231l163 162h-231z" />
<glyph unicode="&#xf033;" d="M441 798q-109 0 -202 -55q-90 -53 -143 -143q-55 -93 -55 -202t55 -202q53 -90 143 -143q93 -55 202 -55q80 0 153 30.5t129 86.5t87 129h149v307h-149q-31 73 -87 129t-129 87t-153 31zM441 679q71 0 134 -34.5t101 -93.5h-235q-42 0 -77 -20.5t-55.5 -56t-20.5 -77 t20.5 -76.5t55.5 -56t77 -21h236q-39 -59 -101.5 -93.5t-134.5 -34.5q-76 0 -142 39q-64 37 -101 101q-38 65 -38 141.5t38 142.5q37 63 101 100q66 39 142 39zM441 433h399v-70h-399q-14 0 -24.5 10.5t-10.5 24.5t10 24.5t25 10.5z" />
<glyph unicode="&#xf034;" d="M495 798q-27 0 -54 -5l-7 -1l-49 -116l-117 48q-53 -38 -90 -89l-4 -5l48 -117l-117 -48q-10 -64 -1 -126l2 -7l116 -49l-48 -116q18 -25 36 -45l13 -12q19 -19 45 -38l117 49l48 -117l7 -1q63 -10 126 0l49 118l117 -49l5 4q52 38 89 90l-49 117l117 48l1 7q10 63 0 126 l-117 49l48 116q-20 28 -41 49l-7 7q-20 19 -47 39l-116 -49l-48 117q-36 6 -72 6zM500 699q11 0 22 -1l51 -123v0l124 51l15 -15q10 -10 15 -16l-51 -123l1 -1v0l123 -51q2 -21 0 -44l-123 -51v0v0l51 -124q-14 -16 -31 -31l-123 51h-1v0l-51 -123q-21 -1 -44 0l-51 123v0 v1l-124 -52l-27 27l-4 4l51 123v1v0l-123 51q-1 23 0 44l123 51v0l-51 124q15 17 31 31l123 -51h1l51 123q11 1 22 1zM500 574q-6 0 -13 -1l-29 -72l-73 30l-18 -18l30 -72l-72 -30v-25l72 -30l-30 -73q8 -9 19 -18l71 30l30 -72q13 -1 26 0l30 72v0l72 -30q9 8 18 18 l-30 72l72 30l1 13l-1 13l-72 30l30 72q-7 9 -18 18l-72 -30l-30 72zM500 447q20 0 34.5 -14.5t14.5 -34.5t-14.5 -34t-34.5 -14t-34 14t-14 34t14 34.5t34 14.5z" />
<glyph unicode="&#xf035;" d="M499 796q-21 0 -36 -15l-73 -73l92 -92q17 6 34 2t29.5 -16.5t16 -29.5t-1.5 -34l88 -88q17 5 34 1.5t30 -16.5q18 -18 18 -43.5t-18 -43t-43.5 -17.5t-43.5 17q-13 14 -16.5 32t3.5 35l-83 83v-218q9 -4 16 -11q18 -18 18 -43.5t-18 -43.5t-43.5 -18t-43 18t-17.5 43.5 t18 43.5q8 8 20 13v220q-12 4 -20 13q-14 13 -17.5 31.5t3.5 35.5l-90 91l-240 -240q-15 -15 -15 -36.5t15 -36.5l349 -349q15 -15 36.5 -15t36.5 15l348 348q15 15 15 36.5t-15 36.5l-349 349q-15 15 -37 15z" />
<glyph unicode="&#xf036;" d="M482 798h-1l-10 -2q-33 -4 -64.5 -18.5t-55.5 -38.5q-41 -37 -57 -91q-9 -30 -8 -63t12 -63q17 -45 52 -78l13 -12l-83 -135q-26 1 -45 -7q-30 -13 -45 -40q-7 -15 -9 -31t2 -32q8 -30 33 -48q15 -10 33 -14.5t36 -2t34.5 12.5t27.5 25q12 17 14.5 39t-5.5 41q-1 5 -7 14 l-3 6l118 192q6 9 8 14l-10 3q-9 2 -13 4q-23 10 -41.5 27.5t-28.5 39.5q-17 36 -9 75q4 23 17 43t31 34q37 27 82 27q27 1 52.5 -9.5t44.5 -30.5q17 -16 26.5 -38.5t10.5 -45.5q0 -17 -6 -42l70 -19l8 -1q14 43 7 86q-4 33 -19.5 63.5t-39.5 53.5q-42 42 -103 56 q-6 2 -18 4l-14 2h-37zM500 674q-17 0 -34 -7t-30.5 -20.5t-19.5 -31.5q-8 -20 -4 -44q3 -18 14 -34t28 -25q24 -15 56 -13q3 -4 5 -8l112 -191q3 -6 6 -9q27 26 58.5 35.5t65 3.5t58.5 -26q32 -25 43.5 -61.5t0.5 -73.5q-8 -28 -28.5 -50t-48.5 -33q-31 -13 -66.5 -8.5 t-63.5 24.5q-4 3 -13 10l-5 6q-4 -3 -11 -10l-47 -46q23 -23 52 -38.5t61 -21.5l22 -4h39l28 5q64 13 110 60q22 22 36.5 50.5t19.5 59.5q5 36 -2 71.5t-25 64.5t-44 51t-57 35q-34 14 -70.5 16t-71.5 -7l-17 -5l-81 137q13 19 16 37q5 32 -13 60q-16 25 -44 35q-17 6 -35 6 zM218 410q-58 -13 -100 -53q-47 -44 -61 -105l-4 -24v-37l2 -11q2 -13 4 -20q7 -31 24.5 -59t42.5 -49q50 -41 115 -49q38 -4 76 4.5t70 28.5q53 34 78 91q7 17 14 45q6 1 18 0l125 -2q14 0 20 -1q11 -20 25 -31t31.5 -16t35.5 -4q28 3 50 20q27 21 32 54q2 17 -1.5 33 t-13.5 30q-16 22 -41 32q-17 7 -35.5 6.5t-35.5 -7.5q-28 -12 -43 -37l-3 -6q-14 0 -42 1l-113 1q-15 1 -43 1l-50 1l3 -17q8 -43 -13 -81q-14 -27 -40 -45t-57 -22q-35 -6 -70 7.5t-57 42.5q-28 35 -27 79q1 37 23 69q13 19 32 32t41 19l9 3z" />
<glyph unicode="&#xf037;" d="M537 797l-227 -73l492 -160v-314l-328 -106l-277 90v307l268 -86l227 73l-493 160l-141 -46v-510l416 -135l468 151v518z" />
<glyph unicode="&#xf038;" d="M500 797q-112 0 -208 -56q-94 -55 -149 -148q-56 -97 -56 -209q0 -87 35 -166q33 -76 94 -134t139 -87l95 254q-41 15 -66.5 51.5t-25.5 81.5q0 39 19 71.5t51.5 51.5t71.5 19t71.5 -19t51.5 -51.5t19 -71.5q0 -45 -25.5 -81.5t-66.5 -51.5l95 -254q78 29 139 87t94 134 q35 79 35 166q0 112 -56 209q-55 93 -148 148q-97 56 -209 56zM963 115l-23 -92h15l12 50v5l2 -5l29 -54l26 47l3 6l1 6l2 -12l11 -43h15l-24 92l-29 -57l-5 -11l-3 8zM862 111v-12h27v-76h16v76h26v12h-69z" />
<glyph unicode="&#xf039;" d="M704 797q-40 0 -74.5 -20.5t-53.5 -56.5q-23 -43 -15 -92l-2 2v-6q-1 -9 -7 -19q-7 -15 -23 -30q-20 -19 -50.5 -38t-57.5 -28q-22 -7 -40 -7q-14 0 -24 4l-8 3l3 -3l-8 4q-35 19 -73.5 17.5t-72 -22t-52 -55.5t-17 -74t22 -72t55.5 -52q40 -21 83.5 -16.5t76.5 31.5 l-1 -2l7 4q9 3 21 3q17 1 39 -5q27 -8 59 -25q48 -26 70 -56q15 -19 16 -37q-1 -42 19.5 -78.5t58.5 -56.5q35 -18 73.5 -16.5t72 22t52 55.5t17 74t-22 72t-55.5 51q-7 4 -15 7l3 1l-5 4q-6 5 -11 16q-8 15 -12 36q-6 27 -7 63t3 63q4 22 11 37q5 11 12 18l5 4h-5 q41 21 62 62q19 35 17.5 73.5t-22 71.5t-55.5 52q-33 18 -70 17zM706 774q39 0 66 -25v0q-15 13 -44.5 10t-58.5 -22q8 -8 8.5 -20t-8 -21.5t-21.5 -9.5h-8l-2 1q-12 4 -21 -8q-16 -29 -16 -56.5t15 -42.5q-20 19 -27 46.5t0.5 56t28.5 51.5q18 19 41 29.5t47 10.5zM605 533 q11 0 18 -3.5t14 -7.5q13 -7 27 -11q11 -11 20 -33q11 -33 12.5 -84t-10.5 -84q-9 -22 -22 -34q-20 -9 -36 -23q-14 -5 -36 -1q-34 6 -81 31q-49 26 -73 54q-14 17 -17 32q2 18 -1 37v-1l1 6q1 8 7 18q8 13 24 28q20 18 50 37q62 38 103 39zM279 499q39 0 66 -25h-1 q-14 13 -44 10t-58 -22q7 -8 7.5 -20t-8 -21.5t-20.5 -9.5q-4 -1 -8 0l-2 1q-13 4 -22 -8q-15 -29 -15.5 -56.5t14.5 -42.5q-20 19 -26.5 46.5t1 56t28.5 51.5q18 19 41 29.5t47 10.5zM731 266q39 0 66 -25v0q-14 13 -44 10t-59 -22q8 -8 8.5 -20t-8 -21.5t-21.5 -9.5 q-4 0 -8 1h-2q-12 4 -21 -8q-16 -29 -16 -56.5t15 -42.5q-20 19 -27 46.5t0.5 56t28.5 51.5q18 19 41 29.5t47 10.5z" />
<glyph unicode="&#xf040;" d="M160 700q-67 0 -113.5 -47t-46.5 -113v-287q0 -66 46.5 -113t113.5 -47h680q67 0 113.5 47t46.5 113v287q0 66 -46.5 113t-113.5 47h-680zM320 619q80 0 80 -85q0 -17 -19.5 -72t-19.5 -65q0 -27 24.5 -48t54.5 -31t54.5 -22.5t24.5 -25.5v-53h-395v53q0 14 24.5 27.5 t53.5 24t54 30t25 44.5q0 6 -20 62.5t-20 75.5q0 47 21 66t58 19zM609 542q118 0 202.5 -84.5t84.5 -204.5h-55q0 97 -68 165.5t-164 68.5v55zM609 444q78 0 133.5 -55.5t55.5 -134.5h-55q0 55 -39.5 95t-94.5 40v55zM647 331q16 0 27 -11.5t11 -27.5t-11 -27t-27 -11 t-27 11t-11 27t11 27.5t27 11.5z" />
<glyph unicode="&#xf041;" d="M326 798q-96 0 -199 -56q-27 -15 -36 -45.5t5.5 -57.5t45.5 -31q28 -3 58 13q58 31 105 40q41 7 85 -2q26 -6 82 -25q13 -5 40 -16q46 -19 72 -27q44 -13 84 -13q94 0 198 45q29 12 41 41t0 57.5t-42 35.5q-27 6 -58 -7q-61 -26 -112 -31q-43 -5 -89 6q-28 6 -85 26 l-19 8q-52 18 -81 26q-49 13 -95 13zM321 505q-95 1 -196 -53q-28 -15 -37.5 -45t5 -57.5t45.5 -31.5q28 -3 58 13q57 30 104 38q40 6 83 -3q26 -5 82 -25v0q12 -4 39 -15q46 -20 72 -27q44 -13 84 -13q100 0 211 49q28 13 39.5 42.5t-1 57.5t-42.5 34q-28 6 -58 -8 q-64 -28 -116 -34q-45 -5 -92 5q-29 6 -87 27l-20 7q-51 19 -80 26q-48 13 -93 13zM310 215q-89 0 -184 -48q-28 -14 -38 -43t4 -56.5t45 -31.5q28 -5 58 11q54 27 100 34q39 5 81 -4q26 -5 78 -24q13 -5 40 -16q46 -19 72 -27q44 -12 84 -12q104 0 222 54q28 14 39 42.5 t-2 56.5t-43 33q-28 5 -59 -9q-66 -31 -120 -38q-47 -6 -95 4q-29 6 -89 27l-20 8q-51 19 -80 26q-48 13 -93 13z" />
<glyph unicode="&#xf042;" d="M160 700q-67 0 -113.5 -46.5t-46.5 -113.5v-286q0 -66 46.5 -113t113.5 -47h680q67 0 113.5 47t46.5 113v286q0 67 -46.5 113.5t-113.5 46.5h-680zM320 619q33 0 51 -13q4 -2 6 -4q23 -20 23 -67q0 -16 -12 -52q-2 -4 -4.5 -11.5t-3.5 -8.5q-19 -55 -19 -65v-8q1 -4 1 -7 q2 -6 6 -13q6 -11 17 -21h1q10 -9 25 -17q12 -6 29 -13l43 -17q21 -10 29 -18l3 -2v-1l4 -6v-58h-395v54q0 16 36 33q3 1 9 4q3 1 4 2q66 27 83 42q5 4 10 9l2 3q1 0 1.5 0.5t0.5 1.5l1 2h1l7 15l1 7q1 3 1 7.5t-7 23.5l-9 27q-8 20 -11 32q-6 17 -7 21q-3 10 -4 19l-2 7v8 q0 12 2 23v1q2 10 4 17q6 16 17 26q2 2 6 4q14 10 34 13h16zM743 526q35 0 65 -17t49 -45l35 34v-108h-109l34 34q-10 21 -30 34t-44 13q-34 0 -58 -24t-24 -57.5t24 -57.5t59 -24t60 28h64q-17 -37 -50.5 -59.5t-74.5 -22.5q-57 0 -96.5 39.5t-39.5 96t39.5 96.5t96.5 40z " />
<glyph unicode="&#xf043;" d="M160 699q-67 0 -113.5 -46.5t-46.5 -112.5v-287q0 -66 46.5 -113t113.5 -47h680q67 0 113.5 47t46.5 113v287q0 66 -46.5 112.5t-113.5 46.5h-680zM320 619q80 0 80 -85q0 -17 -19.5 -72t-19.5 -65q0 -28 24.5 -48.5t54.5 -30.5t54.5 -22.5t24.5 -25.5v-53h-395v53 q0 14 24.5 27.5t53.5 23.5t54 30t25 45q0 6 -20 62t-20 76q0 47 21 66t58 19zM717 532h51v-114h110v-50h-110v-115h-51v115h-110v50h110v114z" />
<glyph unicode="&#xf044;" d="M160 701q-67 0 -113.5 -46.5t-46.5 -112.5v-287q0 -66 46.5 -113t113.5 -47h680q67 0 113.5 47t46.5 113v287q0 66 -46.5 112.5t-113.5 46.5h-680zM320 620q33 0 51 -13q4 -2 6 -4q23 -20 23 -67q0 -15 -12 -52q-2 -4 -4.5 -11.5t-3.5 -8.5q-19 -55 -19 -65v-8q1 -4 1 -7 q2 -6 6 -13q6 -11 17 -21h1q10 -9 25 -17q12 -6 29 -13l43 -17q21 -9 29 -17l3 -3v-1l4 -6v-58h-395v54q0 16 36 33q3 1 9 4q3 1 4 2q66 28 83 42q5 4 10 9l2 3q1 0 2 1l1 3h1l7 15l1 7q1 3 1 8t-7 23q-2 7 -9.5 27t-10.5 32q-6 16 -7 21q-3 10 -4 19l-2 7v8q0 12 2 23v1 q2 11 4 17q6 16 17 26q2 2 6 4q14 10 34 13h16zM682 526h119v-131h76l-135 -141l-136 141h76v131z" />
<glyph unicode="&#xf045;" d="M75 848v-850h850v850h-850z" />
<glyph unicode="&#xf046;" d="M500 847q-115 0 -214 -58q-96 -57 -153 -153q-58 -99 -57.5 -214t57.5 -214q57 -96 153 -153q99 -57 214 -57t214 57q96 57 153 153q58 99 58 214t-58 214q-57 96 -153 153q-99 58 -214 58z" />
<glyph unicode="&#xf047;" d="M1 552v-306h304v306h-304zM695 551v-306h305v306h-305zM502 544q-41 0 -76 -20t-55 -55t-20 -76t20 -76t55 -55.5t75.5 -20.5t75.5 20.5t55 55.5t20 76t-20 76t-55 55t-75 20z" />
<glyph unicode="&#xf048;" d="M278 768q-95 0 -127.5 -28t-32.5 -113v-92q0 -57 -20 -79t-74 -22h-24v-55h24q53 0 73.5 -22t20.5 -80v-92q0 -84 32.5 -112.5t127.5 -28.5h25v55h-27q-54 0 -70 16.5t-16 71.5v95q0 59 -17.5 86.5t-59.5 37.5q42 10 59.5 37t17.5 87v95q0 55 16 71.5t70 16.5h27v55h-25z M697 768v-55h27q53 0 69.5 -16.5t16.5 -71.5v-95q0 -60 17 -87t60 -37q-42 -10 -59.5 -37t-17.5 -87v-95q0 -55 -16.5 -71.5t-69.5 -16.5h-27v-55h24q95 0 127 28.5t32 112.5l1 92q-1 58 20 80t75 22h24v55h-24q-54 0 -75 22t-20 79v92q-1 85 -33 113t-127 28h-24zM617 683 q-27 0 -51 -14t-37 -39q-16 -31 -11 -64l-1 2v-5q-1 -6 -5 -13q-5 -10 -16 -21q-13 -13 -35 -26q-38 -24 -68 -24q-14 0 -21 5v0l2 -3l-6 3q-37 20 -77 7.5t-60 -49.5t-7.5 -77t49.5 -60q27 -14 57.5 -11t53.5 22l-1 -2l5 3q6 2 15 2q12 0 27 -4q18 -5 41 -17q33 -18 48 -39 q10 -13 11 -26q-1 -28 13.5 -53.5t40.5 -39.5q37 -19 77 -7t60 49t7.5 77.5t-49.5 59.5q-5 3 -10 5h2l-3 3q-5 4 -8 11q-6 11 -9 25q-4 19 -4.5 44t2.5 44q3 15 8 26q3 7 8 12l3 3h-3q28 14 43 43q20 37 7.5 77t-49.5 60q-23 12 -49 11zM619 667q27 0 46 -17v0q-10 9 -31 7 t-41 -15q6 -6 6 -14.5t-5.5 -15t-14.5 -6.5q-3 0 -6 1h-1q-9 3 -15 -6q-10 -19 -11 -37t8 -29q-19 21 -18 51t22 53q13 14 29 21t32 7zM550 500q7 0 11 -2l10 -6q9 -4 19 -7q21 -20 23 -81q0 -36 -8 -59q-6 -15 -15 -23q-14 -6 -25 -16q-10 -3 -25 -1q-24 4 -56 21 q-34 19 -51 38q-10 12 -11 22q1 13 -2 26l1 -1v5q1 5 5 12q6 9 17 19q13 13 34 26q42 26 70 27h3zM323 476q27 0 46 -17h-1q-10 9 -30.5 7t-40.5 -15q5 -6 5.5 -14t-5.5 -14.5t-15 -7.5q-2 0 -5 1h-2q-8 3 -15 -6q-9 -18 -10 -36.5t8 -28.5q-20 20 -19 50t23 53q12 14 28 21 t33 7zM637 315q27 0 46 -17h-1q-10 9 -30.5 6.5t-40.5 -15.5q5 -5 5.5 -13.5t-5.5 -15t-15 -6.5h-5l-2 1q-8 2 -15 -6q-10 -19 -10.5 -37t8.5 -29q-20 21 -19 50.5t23 53.5q12 13 28 20.5t33 7.5z" />
<glyph unicode="&#xf049;" d="M500 848q-38 0 -69 -21t-46 -56q-10 -23 -10 -48q-17 18 -40 27q-35 15 -71.5 7.5t-64 -34.5t-34.5 -63.5t7 -72.5q10 -22 28 -40q-25 0 -48 -9q-36 -15 -56.5 -46t-20.5 -69.5t20.5 -69.5t56.5 -45q23 -10 47 -10q-17 -18 -27 -40q-14 -36 -7 -72.5t34.5 -63.5t64 -34.5 t71.5 7.5q23 10 40 27q0 -25 10 -48q15 -35 46 -55.5t69 -20.5t69 20.5t46 55.5q10 23 10 48q17 -17 40 -27q35 -15 71.5 -7.5t64 34.5t34.5 63.5t-7 72.5q-10 23 -27 40q24 0 47 9q36 15 56.5 46t20.5 69.5t-20.5 69.5t-56.5 46q-23 9 -47 9q17 18 27 40q14 36 7 72.5 t-34.5 63.5t-64 34.5t-71.5 -7.5q-23 -9 -41 -27q1 25 -9 48q-15 35 -46 56t-69 21zM500 791q20 0 37.5 -12t25 -30.5t3.5 -38.5t-18 -35v-137l97 97q0 21 11.5 38t30 24.5t39 3.5t34.5 -18t18 -34.5t-3.5 -39.5t-24.5 -30t-37 -11l-98 -98h138q14 15 34 19t39 -4 t30.5 -25.5t11.5 -37t-11.5 -37t-30 -25t-39 -3.5t-34.5 18h-138l98 -98q20 0 37 -11t24.5 -29.5t3.5 -39.5t-18 -35t-34.5 -18t-39 4t-30 25t-11.5 37l-97 98v-138q14 -15 18 -35t-3.5 -38.5t-25 -30t-37.5 -11.5t-37.5 11.5t-25 30t-3.5 38.5t18 35v138l-97 -98 q0 -21 -11.5 -37.5t-30 -24.5t-39 -4t-34.5 18t-18 35t3.5 39.5t24.5 29.5t37 11l98 98h-138q-14 -14 -34.5 -18t-39 3.5t-30 25t-11.5 37t11.5 37t30.5 25.5t39 4t34 -19h138l-98 98q-20 0 -37 11t-24.5 30t-3.5 39.5t18 34.5t34.5 18t39 -3.5t30 -24.5t11.5 -38l97 -97 v138q-14 14 -18 34t3.5 38.5t25 30.5t37.5 12z" />
<glyph unicode="&#xf04a;" d="M500 797q-109 0 -202 -55q-90 -53 -143 -143q-55 -94 -55 -202.5t55 -201.5q53 -91 143 -144q93 -54 202 -54t202 54q90 53 143 144q55 93 55 201.5t-55 202.5q-53 90 -143 143q-93 55 -202 55zM500 722q33 0 73 -10q72 -16 129.5 -62t89.5 -110q33 -68 33 -143 q0 -88 -44 -164q-44 -74 -117 -117q-76 -44 -164 -44t-164 44q-73 43 -117 117q-44 76 -44 164t44 164q44 73 117 116q76 45 164 45zM477 592v-2h3v-105l-17 50q2 -2 4 -5l-4 10h-11l2 -1h-77l-104 -312h73l4 12l-2 -2l15 46h112l17 -56h61l13 -1l-2 8l-1 -2l-15 47h53 q57 0 84 22q10 8 17 18l2 4l5 14v3q4 15 4 28q0 30 -12.5 50t-36.5 28q19 8 28.5 23.5t9.5 38.5q0 19 -6 34l-1 4q-9 24 -36 36l-7 1l8 -3q-9 3 -19 6l11 -3q-7 3 -18 4q-17 4 -44 4h-31zM662 579q1 0 1 -1l4 -2q5 -2 8 -5q-6 5 -13 8zM495 576h95q54 0 76 -16t22 -52 q-1 -19 -8.5 -31.5t-20.5 -18.5q-10 -4 -10 -13q0 -4 3 -8t7 -5q19 -6 29.5 -22.5t10.5 -41.5q0 -38 -23 -56.5t-74 -18.5h-59l-48 148v135zM542 552h-1h-1l-2 -1q-1 -2 -1 -3v-69q0 -3 1.5 -5t3.5 -2h44q21 0 32.5 10t11.5 30t-11.5 30t-32.5 10h-44zM552 538h34 q15 0 22.5 -6.5t7.5 -19.5t-7.5 -19.5t-22.5 -6.5h-34v52zM420 466l37 -125h-76zM540 416h-1h-1l-2 -2l-2 -4v-77q0 -3 2.5 -5t4.5 -2h50l3 2q25 1 36 9q15 13 15 34.5t-15 33t-41 11.5h-49zM549 402h40q22 0 31.5 -7.5t9.5 -23t-9 -23t-30 -7.5h-42v61z" />
<glyph unicode="&#xf04b;" d="M500 796q-78 0 -151 -29q-74 -30 -131.5 -87.5t-88.5 -132.5q-29 -72 -29 -150.5t29 -150.5q31 -75 88.5 -132.5t131.5 -87.5q73 -30 151 -30t151 30q74 30 131.5 87.5t88.5 132.5q29 72 29 150.5t-29 150.5q-31 75 -88.5 132.5t-131.5 87.5q-73 29 -151 29zM500 721 q65 0 124.5 -24.5t105.5 -70.5t70.5 -105.5t24.5 -124.5t-24.5 -124t-70.5 -105t-105.5 -71t-124.5 -25t-124.5 24.5t-105.5 70.5q-62 62 -84 147q-22 83 0 166q22 85 84 147q46 46 105.5 70.5t124.5 24.5zM469 618v-73q-30 -5 -47 -21q-26 -24 -26 -67q0 -34 19 -55 q17 -19 54 -29l3 -2l26 -6q24 -6 32 -13l1 -2q7 -7 7 -18.5t-7 -19.5l-4 -5q-12 -7 -34 -7q-11 0 -24 2h-2q-13 3 -19 5q-24 7 -50 22v-63q25 -10 51 -16q7 -1 20 -3v-72h62v73q30 5 46 20q26 24 26 72q0 37 -18 56q-16 18 -54 28l-37 9q-16 4 -25 10l-3 1q-8 7 -8 18 q0 15 11 23l1 1q11 7 35 7q14 0 26 -3l13 -3q23 -6 42 -16v62q-25 8 -47 11l-8 1v73h-62zM337 575q-16 -47 -24 -91.5t-8 -86.5t8 -86t24 -92h31q-14 49 -20 91q-7 47 -7 87.5t7 87.5q6 42 20 90h-31zM634 575q14 -49 20.5 -90.5t6.5 -87t-6 -87t-21 -91.5h31q16 48 23.5 92 t7.5 86t-7.5 86t-23.5 92h-31z" />
<glyph unicode="&#xf04c;" d="M500 797q-78 0 -151 -29q-74 -31 -131.5 -88.5t-88.5 -131.5q-29 -73 -29 -151t29 -150q31 -75 88.5 -132.5t131.5 -88.5q73 -29 151 -29t151 29q74 31 131.5 88.5t88.5 131.5q29 73 29 151t-29 151q-31 74 -88.5 131.5t-131.5 88.5q-73 29 -151 29zM500 722 q65 0 124.5 -24.5t105.5 -70.5t70.5 -105.5t24.5 -124.5t-24.5 -124.5t-70.5 -105.5t-105.5 -70.5t-124.5 -24.5t-124.5 24.5t-105.5 70.5q-62 63 -84 148q-22 82 0 164q22 85 84 148q46 46 105.5 70.5t124.5 24.5zM554 627l47 -49l-46 49h-1zM316 624v-12v-442h368v318 l-4 4l-125 132h-239zM341 599h204l5 -5v-109h-1v-3h70l-45 2h79l6 -6v-283h-318v0h317l-3 191v-189h-312v397h-2v5zM545 594q2 -2 3 -10v10h-3zM685 489v-159v-160h2v318zM520 475l31 -94l-31 94v0zM448 474l-85 -253q0 -1 2 -1h55l-4 -1h7l4 10l-3 -5l13 43h93l13 -46 q-1 1 -2 4l-1 2l2 -10h11h-1q-5 2 -7 3h56l-6 -2q9 1 9 2l-13 40l10 -33l-83 247h-70zM483 415l31 -102h-62zM439 264v-1l21 1h-21z" />
<glyph unicode="&#xf04d;" d="M857 808l-230 -214h111l-85 -368h-2l-120 368h-144l-121 -362h-2l-111 476h-153l185 -700h155l117 363h2l118 -363h153l157 586h113z" />
<glyph unicode="&#xf04e;" d="M75 847v-850h850v850h-850zM722 462q39 0 66.5 -15t46.5 -49l-62 -40q-10 18 -22 26t-29 8t-27.5 -9.5t-10.5 -24.5q0 -17 11 -28q10 -9 38 -21l20 -8q55 -24 78 -49q28 -30 28 -77q0 -52 -38 -82q-36 -29 -95 -29q-53 0 -91 23q-35 22 -54 59l65 37q14 -23 31 -35 q20 -13 48 -13q24 0 39 11t15 29t-15 30q-11 8 -43 22l-20 9q-48 20 -70 45q-26 29 -26 75t32 76t85 30zM458 457h80v-273q0 -60 -34 -91q-31 -29 -86 -29q-45 0 -77 21q-27 19 -43 52l66 39q11 -21 20 -29q12 -12 31 -12q21 0 31 10q12 12 12 40v272z" />
<glyph unicode="&#xf04f;" d="M359 782q-98 0 -181 -49q-82 -48 -129 -129q-49 -84 -49 -181.5t49 -180.5q47 -81 129 -129q83 -49 181 -49q73 0 141 29q68 -29 141 -29q98 0 181 49q81 48 129 129q49 83 49 180.5t-49 181.5q-48 81 -129 129q-83 49 -181 49q-73 0 -141 -29q-68 29 -141 29zM352 669 q80 0 145 -47q65 47 145 47q67 0 124 -33.5t90.5 -90.5t33.5 -124.5t-33.5 -124.5t-90.5 -90.5t-124 -33.5q-80 0 -145 47q-65 -47 -145 -47q-68 0 -125 33.5t-90.5 90.5t-33.5 124.5t33.5 124.5t90.5 90.5t125 33.5zM270 569q-36 -77 -36 -146q0 -59 25 -103q21 -38 51 -52 q51 -22 95 -17q60 8 92 65q18 -35 53 -52q30 -15 68 -14q35 1 67 15.5t54 57.5q24 47 23 106q-1 69 -36 140h-120q20 -46 27 -99q7 -51 0 -87.5t-27 -38.5q-23 -2 -32 7q-12 10 -15.5 43.5t-1.5 106.5h-117q6 -101 -10 -137q-14 -30 -44 -16q-27 11 -26.5 70t28.5 151h-118z " />
<glyph unicode="&#xf050;" d="M471 766l-471 -702h471v702zM529 766v-18q0 -186 19 -306q27 -173 97 -266q85 -112 236 -112h119z" />
<glyph unicode="&#xf051;" d="M500 847q-115 0 -214 -58q-96 -57 -153 -153q-58 -99 -58 -214t58 -214q57 -96 153 -153q99 -58 214 -58t214 58q96 57 153 153q58 99 58 214t-58 214q-57 96 -153 153q-99 58 -214 58zM496 760h3h1q92 0 171 -46q76 -45 121 -121q46 -79 46 -171t-46 -171 q-45 -76 -121 -121q-79 -46 -171 -46t-171 46q-76 45 -121 121q-46 79 -46 170.5t45 170.5q44 76 120 121q77 46 169 47zM497 661q-56 0 -104.5 -24t-82 -66.5t-45.5 -94.5h114q15 34 47 55t71 21q35 0 65 -17.5t47.5 -47.5t17.5 -65t-17.5 -65t-47.5 -47.5t-65 -17.5 q-39 0 -71 21t-47 54h-114q12 -52 45.5 -94t82 -66t104.5 -24q64 0 119 32.5t87 87t32 119.5t-32 119.5t-87 87t-119 32.5z" />
<glyph unicode="&#xf052;" d="M268 846q-57 0 -102 -24q-29 -15 -46.5 -32t-32.5 -45.5t-19 -56.5q-4 -24 -1.5 -61t12.5 -63.5t32.5 -54.5t46 -41t59.5 -18l1 -9q0 -11 -1.5 -16.5t-9.5 -14.5q-6 -6 -7 -17q0 -7 -2 -11q-3 -6 -13 -12q-15 -9 -18 -30q-2 -9 4 -12.5t14 1.5q11 8 27 3q4 -2 9.5 0 t8.5 7q7 11 19 12v-11q-2 -40 -1 -60q3 -33 14 -62q14 -36 38.5 -66t69.5 -64l-7 7q-40 41 -55 60q-24 32 -35 68q-10 31 -12 60q-1 17 0 53l1 21q16 3 27 7t25 13l5 -33q1 -5 1 -15q-1 -13 0.5 -17.5t6 -4.5t6 -4.5t2.5 -20.5q1 -13 2.5 -17t3.5 -3.5t3 0.5l5 -1 q7 0 9 -2.5t2.5 -9.5t3.5 -9t9.5 -2t7.5 -2q3 -3 -1 -7l-2 -1q-4 -3 -5 -5q-2 -7 1 -16.5t9 -14.5q2 -1 9.5 -2t9.5 -3t1.5 -7t1.5 -6.5t7.5 -1.5h7.5l2 -1q7 -3 6 -6.5t-7 -10.5q-5 -4 -6 -6q-4 -7 -2.5 -12.5t8 -12.5t23.5 -18l11 -8q8 -6 8 -10t-6 -9q-1 -2 -7 -4.5 t-8 -4.5q-3 -5 -2 -13q0 -4 5 -9l2 -3q5 -7 12 -10l-10 14q-3 6 1 13q1 2 6 2.5t7 1.5l3 2q5 2 7 5l1 1q5 8 3.5 13.5t-8.5 19.5l-5 10l6 -4q6 -6 8.5 -9t5.5 -9t5.5 -9t9.5 -9l5 -5l-9 -12q-5 -8 -6 -12q-3 -7 -1.5 -13t4.5 -9.5t10 -9.5l5 -4l-3 5q-6 10 -7 14.5t4 10.5 q1 2 6 5l3 2l-1 -4q-1 -5 0 -9q2 -5 12 -16q7 -8 15.5 -14t16.5 -8q4 -1 11 -1h5l-5 3q-7 2 -9.5 4.5t-5.5 8.5l-2 4l5 -3l9 -6q8 -4 18 -6q6 -2 20 -3l9 -1l-6 3q-10 5 -14 8.5t-6 11.5v1q4 -2 13 -7q11 -8 16 -9q14 -4 26.5 -2.5t23.5 7.5q-16 -3 -31 0l5 3q6 3 14 10 q19 15 23 29q-11 -13 -31 -18l3 3q8 9 9 15q-11 -5 -19 -2t-16 12t-10 15q0 4 1 5.5t4 3.5l3 2q2 2 8 5q8 5 11 8q6 7 8 14.5t0 16.5q-1 3 -4.5 9t-3.5 8v0q-2 6 -0.5 10t6.5 11l4 5l17 3l10 1q12 0 16 2q6 3 9 19v0q3 12 0 32v1l6 3q9 3 12 5q6 4 10 9.5t4 13.5q0 5 -5 10 q-1 2 -7 6l-6 5q-2 2 -4 6l-2 3q14 9 30 24q9 9 12 18t3 22q-1 17 -5 29q-2 4 -7 7l-2 2q-6 5 -9.5 5.5t-7.5 -0.5l-9 -2q-10 -2 -13.5 -1t-5.5 5l-3 2l-2 12l-1 5q0 6 -1 9.5l-3 10.5l-2 6l3 -2q4 -1 8 -4l10 -6q11 -8 16 -11q10 -5 19 -6q6 -1 14.5 -6t13.5 -6 q11 -2 34 -1q15 0 22.5 4t10 12.5t-1 11.5t-8.5 2v0q-10 -3 -14 11q-1 3 -2 9l-1 6q45 9 72 35q16 15 32 41t21 46q7 24 7 60q-1 32 -7 60q-5 19 -12 34.5t-20 31.5q-25 31 -51 46q-15 9 -34 15t-34 8q-53 5 -84 -7q-7 -3 -21 -12l-13 -9q-17 -10 -25.5 -9.5t-14.5 5.5 q1 -9 3 -14.5t9 -11.5q8 -8 27 -10q11 -1 32 1h5q7 1 19 3q16 4 25 3.5t23 -5.5q12 -3 20 -8q12 -6 22.5 -16.5t18.5 -21.5q9 -16 13.5 -31.5t4.5 -35.5q0 -8 -3 -23l-1 -6q-2 -16 -14 -30q-14 -16 -29 -11t-29 19q-8 8 -22 27l-6 8q-35 48 -57 68q-11 9 -27 16t-30 9 q-24 2 -38.5 -2.5t-35.5 -20.5q-3 -2 -9 -8q-7 -7 -12 -10q-7 4 -19 14q-18 14 -30 19q-15 6 -24 7.5t-28 1.5q-42 0 -72 -25q-13 -10 -60 -64q-40 -46 -47 -50l-6 -4q-7 -5 -12 -7t-14 -2q-13 0 -28 16q-16 18 -17 40q-1 26 2 39q3 17 19 44q25 44 94 55q15 3 40 -3 q22 -4 35 -4q30 1 43 7q20 9 19 34q-10 -7 -24 -7q-8 0 -33 15l-15 10q-14 8 -33 11q-16 3 -43 3h-7zM268 838h6q25 -1 38 -3q19 -2 33 -9q7 -4 20 -12q22 -13 30 -14q14 0 21 4q-8 -23 -54 -23q-10 0 -28 4q-29 6 -48 3q-72 -9 -100 -59q-17 -29 -21 -47q-3 -12 -2 -41v-1 q1 -16 9.5 -30.5t20.5 -23t22 -8.5q12 0 18 2.5t17 9.5l4 2q8 5 49 54q44 50 56 61q17 15 36 20q12 4 32 4q17 1 26.5 -1t23.5 -8q11 -5 20 -12q6 -4 16 -14l6 -5l7 -8q7 2 13 2q11 0 22 -16q5 -6 4 -17q-1 -7 0.5 -11t6.5 -6l4 -2q4 -3 4 -7q3 5 0 8l-4 2q-5 5 -5 8t1 9 q1 9 -2 17t-10 14q-4 3 -13 9l-4 2l5 -1q6 -2 10 -4q38 -16 45 -35q4 -8 2 -14.5t-8 -13.5q-2 -2 -9 -7q-11 -8 -13 -13q-1 -7 2 -12q1 -2 5.5 -5t5.5 -5q3 -6 -1.5 -10.5t-9.5 -4.5q3 2 4.5 6t0.5 7q-3 7 -14 14q-4 2 -13 4q-13 4 -21 11q-6 4 -8.5 8t-3.5 12q-4 17 -3 29 q1 4 2 10l2 6q-4 -3 -6 -8v0l-14 13q-12 11 -19 16q-11 7 -25 10q-22 3 -39.5 -0.5t-37.5 -14.5q-18 -10 -34 -25q-9 -9 -26 -29q-13 -16 -21 -24q-17 -19 -30.5 -28.5t-37.5 -21.5l-17 -17l-13 16l-23 -3l-4 23l-21 6l4 30l-15 10l11 19l-11 21l14 24l-5 23l17 14l2 24 l23 8l10 22h26l13 16l18 -1l20 2l11 7l17 -10l19 10l40 -14l-26 21l-26 4l-21 4l-27 -8l-24 6l-24 -13l-24 1l-12 -20l-25 -2l-13 -23l-16 -7l-4 -29l-13 -12l6 -25l-16 -18l15 -21l-17 -12l21 -17l-21 -20l26 -8l-17 -21l21 -4l-14 -23h24l-12 -18l25 3l-6 -25l20 15l6 -31 l14 22l7 -27l16 20v-29l18 26l-10 -45q-36 5 -59 17.5t-43.5 38t-31 52t-13.5 60.5q-2 36 2 59q4 27 18.5 54t34.5 45q18 17 46 32q39 21 94 21zM739 834q62 0 99 -22q18 -11 46 -41l5 -5q14 -20 20 -31q8 -15 13 -34q5 -23 5 -57t-6 -56q-5 -19 -20 -44.5t-30.5 -40.5 t-31 -22t-38.5 -10q-6 9 -10 30l-2 13l16 -25v28l14 -20l7 27l11 -22l6 30l17 -15l-5 24l22 -2l-10 17l20 -1l-12 23l18 3l-14 20l22 8l-18 19l18 16l-14 12l13 19l-14 18l5 24l-12 11l-3 27l-14 7l-12 22l-21 2l-11 19l-21 -1l-21 12l-21 -5l-24 7l-17 -4l-24 -4l-22 -19 l34 13l18 -9l14 9l10 -7l17 -2l16 1l11 -15h23l9 -21l20 -7l2 -24l15 -12l-5 -22l13 -23l-10 -20l10 -18l-13 -10l3 -29l-18 -5l-4 -22l-20 3l-12 -15l-15 15l-9 5q-13 6 -19 11q-11 9 -31 32q-5 6 -16 21q-16 21 -22 28q-14 15 -33 26q-16 10 -29.5 13.5t-27.5 0.5 q-6 -1 -16 -5l-8 -3l8 -6q10 -6 13 -9l1 -1q13 -11 17 -18q7 -11 4 -24q-1 -8 -11 -17l-1 -1q17 1 31 -2l4 -16q2 -13 7 -18l6 -5q8 -7 12 -16q1 -3 1.5 -13t-0.5 -13.5t-6 -9.5l-3 -4h-14q-11 0 -27 -7q-1 9 1 14q1 2 3 3t3 3t3 8l1 4h3q5 1 7 1q4 0 7 -1.5t7 -5.5 q-3 8 -11 11h-10h-2q2 7 6 12l3 2q3 2 4 5t-0.5 5.5t-4.5 3.5q-5 2 -12 -1q-10 -4 -16 -21q-4 -14 -2 -35q1 -6 3 -17l1 -2l5 -6q26 -36 38 -55q3 -6 8 -18q7 -15 11 -21q10 -14 22 -20q5 -2 13 0h4q2 1 5.5 2.5t6.5 0.5q11 -3 14 -10t3 -24q-1 -15 -4 -22q-3 -4 -11 -12 l-4 -4q-4 -5 -14 -11l-2 -1q-13 -9 -24 -13l-24 -9q18 1 38 4l3 -3q3 -6 5 -8t7 -4.5t7 -4.5q3 -6 0.5 -11.5t-11 -8.5t-14.5 -2h-6q-32 2 -46 -2l-10 -2q-19 -5 -28 -7q-16 -2 -29 0q-17 2 -25 5q-11 4 -22 18q-7 9 -17 27l-4 5l1 6q2 12 4 18q4 9 11 17q-9 -6 -12 -12 q-2 -4 -5 -14l-2 -9l-4 7q-12 21 -18 25q-4 2 -12 2h-6l6 -2q7 -2 10 -5t8 -12l9 -18q9 -18 13 -25l2 -2q15 -24 29 -32q8 -6 22 -8.5t25 -2.5q9 1 28 5q16 4 23 5q15 1 45 -3l5 -1q2 -11 2 -16q1 -9 -2 -17l-1 -3q-1 -5 -5 -6t-14 0l-10 1q-26 -1 -53 -5l-10 -2 q-41 -6 -48 -12l6 -1q8 -1 11.5 -2t7.5 -4q6 -4 10.5 -4t12 4t11.5 4.5t12 -1.5l6 -1q0 -3 -1 -8q-2 -7 0 -10l5 -7q5 -7 6 -10q2 -9 0 -13.5t-7 -9.5l-13 -11v6q0 4 -1 5q-6 -13 -19 -19l1 3q7 15 6 22q-1 9 -4 17v-5q0 -11 -2 -15q-4 -9 -13 -16q-4 -3 -15.5 -9t-15.5 -9 q-9 -8 -9 -19q0 -4 5 -13l4 -7l-4 3q-8 5 -11 9q-5 7 -6 16v11v8l-4 2q-5 2 -9 5l-1 1q-13 8 -17 14q-6 8 -5 20q1 4 6 11l4 5l-5 -2q-8 -3 -12 -3q-8 1 -9 4.5t0 10.5v2q1 3 1 10l-1 5l-3 -4q-5 -6 -8 -8l-6 -3q-10 -5 -12 -10t0 -16q2 -7 2 -11q-3 3 -6 5t-8.5 7t-5 9 t3.5 9l1 2q5 8 5 15t-4 14q-7 10 -15 14q-3 2 -10.5 3t-9.5 2q-12 4 -15 10t0 13q1 2 4 6t4 6q2 10 -4 13q-3 2 -8.5 2t-8 1.5t-2.5 6.5t-1 6l-2 3q-3 4 -5.5 5.5t-6.5 1.5q-8 0 -10 4.5t-2 17.5q0 10 -1 13.5t-6 5.5t-6 5.5t0 13.5q1 13 -1 19q-4 13 -3 36q18 15 25.5 23 t20.5 29l8 -21q2 -7 15 -23l5 -7l-10 19q-9 17 -9 35q0 12 3 32l2 8q3 21 1 37v2q-4 -34 -14.5 -58.5t-29.5 -46.5q-28 -31 -67 -44q-5 -1 -16 -3.5t-17 -4.5q-9 -3 -14 -8q-10 -10 -15 -12q-4 -1 -7.5 0.5t-5.5 1.5q-11 0 -26 -10q0 9 1 12t6 7l5 5q4 4 9 6.5t6.5 5 t3.5 11.5q4 20 12 26q5 4 6 10q1 4 1 13.5v14.5q11 43 28.5 78t33.5 48q10 9 25.5 18t27.5 13q6 2 22 3q6 0 8 1l3 1q22 7 33 9q17 4 29 1h1q8 -3 13.5 -3t18.5 3q4 1 12.5 5t12.5 6q7 2 17 3h3l1 -3q2 -10 4.5 -15t10.5 -10.5t21 -9.5q9 -2 14 -4q11 -5 11 -10.5t-3 -7 t-11 -2.5q5 -5 12 -5.5t12.5 2.5t7 11t-2.5 11l-3 2q-4 3 -6 5q-3 4 -1.5 7.5t5.5 7.5l14 12q7 6 10 10q5 7 5 13q-1 10 -4 16t-12 14q-14 14 -34 22q-4 2 -11 4l-5 2q22 18 33 22q15 6 40 4q30 -3 53 -24q21 -18 54 -64l7 -11q12 -15 25 -28q19 -19 30 -21q21 -2 35 12 q11 12 16 33q4 14 4 33t-5 36q-5 19 -14 33q-15 25 -43 41q-23 13 -46 14q-13 0 -29 -4q-10 -2 -16 -2q-35 -3 -44 -0.5t-14 6.5t-9 11q7 -4 16.5 0t27 15t27.5 15q20 7 41 8zM660 616q4 -1 10 -2q14 -3 20 -6q14 -6 23 -15q8 -7 18 -21l4 -6q9 -13 13 -20q2 -5 5 -16.5 t6 -17.5q5 -10 19 -29l2 -3q3 -4 8 -9t7 -8.5t3 -13.5q0 -7 1 -9q4 -9 10.5 -11.5t12.5 -1.5q-1 -6 -7 -9.5t-13 -4.5q-16 -1 -34 1q-4 1 -12.5 5.5t-13.5 5.5q-10 2 -24 8q-5 3 -16 10l-8 6l-17 9l-8 23l9 9h-4q-5 -1 -7.5 -2t-7.5 -4l-4 -2q-2 -1 -8 -2h-5l-5 8l1 -1 q7 -1 10 -1q10 2 12 12q1 5 -1 11h2q3 0 4.5 -1t3.5 -4l2 -3q1 -1 4 -1h2q1 8 -1 14q-2 4 -7 7l-1 1q-3 2 -5 3h-1l2 2q7 7 8.5 11t1 16t-1.5 16q-3 8 -14 18l-4 4q-3 3 -4 7.5t-0.5 8.5t9.5 7zM448 608l-2 -2q-6 -9 -12 -12q-2 -1 -6 -1.5t-5.5 -1.5t-2 -3t-2 -2.5t-7.5 0 t-9.5 -1t-9.5 -8.5l-2 -4q-4 -4 -4 -6l-1 -4q0 -4 -3 -4.5t-6 -3.5l-1 -2q-2 -2 -3 -6t-2 -6q-2 -4 -15 -13l-4 -3l6 3q13 6 18 10l5 5l5.5 5.5t5 2.5t4.5 2.5t1 4.5t1 5q5 10 8.5 13.5t10.5 1.5l-1 -6v-6q0 -9 -1 -12t-4 -7l-3 -3l4 2l9 3q10 6 15 12t9 16q4 12 4 32z M502 593q1 -10 4 -13q2 -1 5 -2t4 -1.5t2 -2.5t2.5 -2.5t8.5 0.5v0l13 -27q2 -4 2.5 -8t1.5 -8q4 -7 17 -26l2 -2l-3 6q-4 7 -5 12l-2 11q-2 9 -3.5 11.5t-3.5 4t-4 4.5q-7 13 -16 41l-2 -2q-3 -3 -7 -3t-15 6zM490 558q-12 0 -22.5 -3.5t-26.5 -14.5l-3 -2l10 4q15 7 21 8 t14 2q10 0 12 -1q5 -4 6 -20l1 -5h-4q-5 -2 -8 -2l-7 1h-8.5t-7.5 -2l-6 -1l-8 -1q-9 -1 -17 -6v-6q-1 -8 1 -12.5t9 -10t13 -8.5q15 -6 32.5 -6t23.5 13q2 3 3 13l-1 -4q-3 -8 -6 -11q-6 -5 -14 -6.5t-21 1.5q-6 1 -15 5.5t-16 15.5q6 6 8.5 7t10.5 1h2v-3q-1 -6 1 -9 q3 -7 7.5 -9t11.5 -1.5t11 5t4 10.5q0 8 -7 14h4q11 2 14.5 0.5t4.5 -5.5l1 -2q-1 7 -3 10l-4 7l-1 5q-2 16 -8 23v1q-3 3 -5.5 4t-6.5 1zM634 514q-3 -5 -4 -8t-1 -9l-8 13q4 3 10 3zM528 487q-1 -2 -2 -7q-2 -9 -4.5 -12t-8.5 -7l-4 -3l4 1q9 1 11.5 5t2.5 15zM664 477 q2 -6 5 -17l6 -19q2 -6 2.5 -9t0.5 -10v-5l-14 27l-17 26l5 1q4 1 6 2t5 3zM556 417h-5q-10 -1 -22 -8q-15 -8 -15 -28q-1 -9 4 -19q3 -5 11 -13l1 -1l-3 9v9q2 -3 6 -4l3 7v4q0 8 5 11q8 4 16 1q2 -1 6 -4l2 -1q-4 12 -15.5 13.5t-18.5 -4.5q-1 -1 -4 -5l-3 -4q-2 11 9 20 q8 8 29 9q14 0 24 -5q3 -1 11 -8l7 -5l17 -8q8 -5 17 -13t17 -10q4 -1 13 1l-6 1q-6 1 -9 3t-9 8q-9 8 -15 12.5t-16 10.5l-12 8q-8 6 -13 8q-12 5 -32 5zM570 371q-15 0 -18 -7q-2 -4 -1 -8.5t5 -7.5q8 -7 17 -3q4 2 4 8q0 1 -2 3l-1 1q5 1 8 0q15 -7 24 -25q3 -5 6 -15 l1 -7v5q-1 13 -2 18q-4 16 -15 28q-3 2 -8 5l-2 2q-5 3 -14 3h-2zM449 354q-5 0 -8 -2.5t-2 -9.5v-5l3 1q3 2 3.5 3t1.5 4v2l19 5z" />
<glyph unicode="&#xf053;" d="M501 846q-103 0 -197 -46q-51 -25 -104 -78.5t-79 -107.5q-46 -94 -46 -194t44.5 -189t126.5 -151q36 -27 86 -49t93 -30q14 -2 42 -3t54 0q109 4 200 59q89 53 143 141q55 91 60 199q3 62 -7 112t-36.5 104.5t-79.5 108t-104 78.5q-94 46 -196 46zM694 720q22 1 43 -8.5 t37 -26.5q9 -10 10 -28q2 -21 -4 -70q-6 -43 -21 -144q-15 -92 -20 -130q-6 -48 -5 -68t9.5 -23t27.5 4q14 4 18 2.5t-3 -8t-23 -15.5q-62 -36 -75 -12q-6 11 -6 27q0 19 5 63q5 39 20 134q13 85 18 122q6 47 6.5 70t-3.5 36q-4 10 -14 21q-15 15 -37.5 18.5t-40.5 -6 t-33 -47.5t-22 -90l-4 -31h52q21 0 37 -1.5t17.5 -4t-3 -9t-12.5 -13.5q-12 -10 -18.5 -12t-13.5 2q-5 2 -16 4t-21 2h-25l-12 -105q-10 -95 -21 -147q-11 -55 -29 -92q-16 -33 -47 -67q-12 -14 -22.5 -24t-13.5 -10q-9 0 -8.5 8.5t11.5 19.5q21 21 34 51t24 83 q10 50 20 140q16 138 16 140.5t-24 2.5q-11 0 -19.5 1.5t-10.5 3.5t5.5 9t19.5 12.5t20 5.5t12 8t9 35q22 117 116 159q19 8 40 8zM348 514q26 0 47.5 -13t33.5 -39q10 -19 12 -34t0 -49q-3 -62 -32 -109.5t-78 -71.5q-28 -14 -43 -15.5t-36 8.5q-35 15 -52.5 53.5 t-12.5 90.5q6 71 49 119q25 29 54.5 44.5t57.5 15.5zM321 478q-71 0 -88 -123q-5 -32 6 -67t30 -51q30 -25 60 -13.5t49 51.5t19 96q0 33 -11 62.5t-26 37.5q-6 3 -17.5 5t-21.5 2z" />
<glyph unicode="&#xf054;" d="M500 849q-115 0 -214 -59q-97 -56 -153 -152q-58 -99 -58 -214.5t58 -214.5q56 -96 153 -152q99 -58 214 -58t214 58q96 56 153 152q58 99 58 214.5t-58 214.5q-57 96 -153 152q-99 58 -214 59zM500 829q110 0 204 -55q92 -54 146 -146q55 -94 55 -204t-55 -205 q-54 -92 -146 -146q-94 -55 -204 -55t-205 55q-91 54 -145 146q-55 95 -55 205t55 204q54 92 145 146q95 55 205 55zM500 788q-94 0 -176 -45q-79 -44 -129 -119l24 -1q24 0 63 3l34 2q9 1 13.5 -6.5t1.5 -15t-13 -8.5l-12 -1q-16 -2 -29 -3l132 -394l80 239l-57 155l-38 4 q-9 1 -12 8.5t1 15t13 6.5l35 -2q39 -3 62 -3t62 3l35 2q9 1 13 -6.5t1 -15t-12 -8.5l-13 -1q-15 -2 -29 -3l132 -391l40 131q13 43 17 60q7 28 7 48q0 30 -10 58q-6 18 -20 43l-4 7q-17 26 -22 39q-10 21 -10 39q0 26 17.5 45.5t43.5 19.5l5 -1q-49 46 -112 71 q-64 25 -134 25zM820 598q2 -18 2 -37q0 -61 -27 -131l-112 -322q83 49 132 131q50 85 50 185q0 93 -45 174zM167 572q-32 -71 -32 -148q0 -107 58 -196q55 -88 148 -133zM506 392l-109 -318q51 -15 103 -15q62 0 121 21l-2 5z" />
<glyph unicode="&#xf055;" d="M453 704q-37 0 -68 -18t-49 -49t-18 -68q0 -45 28 -81q28 33 68 51.5t85 18.5t85 -18q3 15 3 29q0 37 -18 68t-49 49t-67 18zM277 642q-29 0 -49.5 -21t-20.5 -50q0 -18 9 -34q37 21 79 21l9 -1l-1 12q0 32 13 61q-18 12 -39 12zM609 593h-6h-3q3 -14 3 -24q0 -18 -5 -36 q52 -29 81 -81q30 16 63 18q-3 34 -21 62t-47.5 44.5t-64.5 16.5zM500 543q-52 0 -95 -25.5t-68.5 -68.5t-25.5 -94t25.5 -94.5t68.5 -69t94.5 -25.5t94.5 25.5t68.5 69t25.5 94.5t-25.5 94t-68.5 68.5t-94 25.5zM295 542q-39 0 -73 -19.5t-53.5 -53t-19.5 -73.5 q0 -35 15.5 -65.5t42.5 -50.5q11 22 32 35t47 13q4 0 12 -1q-2 13 -2 28q0 67 40 121q-24 29 -30 66h-11zM753 455q-35 0 -68 -17q19 -40 18 -83q1 -41 -15 -78t-43 -66q20 -22 48.5 -35t59.5 -13q40 0 73.5 19.5t53 53t19.5 73.5t-19.5 73.5t-53 53t-73.5 19.5zM130 436h-1 h-1q-35 -2 -64.5 -20.5t-46.5 -48.5t-17 -66t18 -67t49 -49t68 -18q42 0 76 24q-14 22 -14 48q0 13 4 26q-31 23 -49 57t-18 74q0 20 5 40h-9zM926 320q-5 0 -11 -1v-10q0 -31 -12 -59.5t-33 -50.5q23 -26 56 -26q31 0 52.5 21.5t21.5 52t-21.5 52t-52.5 21.5zM286 313 q-31 0 -52.5 -22t-21.5 -52.5t21.5 -52t52.5 -21.5q23 0 41.5 13t26.5 34q-41 42 -53 99q-8 2 -15 2z" />
<glyph unicode="&#xf056;" d="M500 847q-17 0 -34 -1q-73 -6 -141.5 -36.5t-120.5 -82.5q-62 -59 -96.5 -140t-32.5 -166q-1 -65 19.5 -128.5t59.5 -117.5q55 -78 141 -125t181 -52q17 -2 50 1l19 1q62 6 120.5 31t106.5 65q68 57 108.5 138.5t43.5 168.5q2 13 0 38l-1 19q-6 76 -40 146t-90 123 q-58 56 -135 87t-158 31zM499 762h5q44 0 77 -9q48 -12 91 -37t76 -61q39 -41 62.5 -92.5t29 -106.5t-8.5 -112q-14 -61 -50 -114t-88 -88q-43 -30 -93 -45.5t-100.5 -15.5t-100 15.5t-92.5 44.5t-75.5 70.5t-51.5 90.5q-21 55 -22 115t19 115q28 84 97 145q39 35 88 57 t101 27zM642 576q-4 0 -7 -1q-10 -2 -16.5 -10.5t-6.5 -18.5v-68q-1 -21 11 -30q8 -7 19.5 -6.5t20.5 7.5t10 18q1 19 1 57v22q0 13 -10 21.5t-22 8.5zM729 576h-1q-4 0 -7 -1q-9 -3 -15.5 -10t-5.5 -16v-83q0 -7 4.5 -13t12.5 -9q14 -7 28 1.5t15 23.5q1 21 0 64v13 q0 12 -9.5 21t-21.5 9zM556 576q-4 0 -7 -1q-10 -2 -17 -10.5t-6 -18.5v-74q-1 -9 4.5 -17t14.5 -12q14 -5 28 3t14 23v80q0 11 -9.5 19t-21.5 8zM365 576q-45 -2 -76.5 -22t-50 -55t-18.5 -73v-6q0 -30 4 -45q6 -29 24.5 -53.5t44.5 -38t55.5 -14.5t57.5 9q18 7 36 23 q12 10 30 30q2 3 0.5 5.5t-5.5 5.5l-4 4q-13 -14 -24 -22q-18 -13 -41 -13t-42 12q-24 17 -37 54q-8 24 -10 54q-1 21 1 55q3 20 8 32q6 17 16 26.5t23 11.5t23 -7q5 -4 6 -12q1 -4 1 -14v-8q1 -15 3 -23q3 -12 10 -18t17 -7q6 0 17 1h2q14 3 22.5 15t7.5 26q-3 24 -18 38.5 t-38 21.5q-21 7 -45 7z" />
<glyph unicode="&#xf057;" d="M657 848q-33 0 -70 -8q29 -11 68 -36q22 -14 31 -23q13 -14 8 -27q-18 -32 -63 -29q-30 2 -70 20l-22 11q-37 18 -57 25q-33 11 -60 6q-56 -10 -91 -110q51 15 90 11q53 -5 74 -44q12 -23 14 -54.5t-8 -56.5q-12 -29 -37 -39q-30 -12 -61 0q-18 7 -52 32q-21 16 -31 22 q-47 26 -75 33q-50 12 -69 -24q-8 -14 -10 -33q-1 -12 0 -34.5t0 -33.5q-2 -18 -9 -32q-12 -23 -35 -33q-19 -8 -47 -7q-16 0 -48 5l-8 1l6 -6q18 -18 28 -26q43 -33 80 -27q18 4 33 13q12 8 27 22q6 6 16 18.5t16 17.5q9 9 21 13q31 9 63 -7t54 -46q23 -33 20 -67 q-2 -32 -39 -59q-20 -14 -62 -20q25 -34 68 -43q29 -6 89 0q19 1 60 12q34 10 51 12q28 4 50 -1q27 -6 34 -26q7 -17 -2.5 -39t-27.5 -37q-53 -43 -149 -35q61 -30 115 -45q95 -27 173 -7q72 18 126 75q50 52 79 131q27 75 32 162.5t-14 170.5q-19 86 -58 152 q-43 71 -104 109q-66 42 -147 41zM850 659q11 0 17 -8q35 -54 54 -115.5t19 -127t-19.5 -128t-57.5 -116.5q-4 -7 -12 -8.5t-14.5 3.5t-8 12.5t2.5 14.5q35 49 52.5 106t17.5 116.5t-17 115.5t-50 105q-4 7 -2.5 15t7.5 11.5t11 3.5zM779 612q10 0 16 -9q59 -88 59 -194.5 t-62 -195.5q-4 -7 -12 -8.5t-14.5 3t-8 12.5t3.5 14q54 80 54 174.5t-52 172.5q-5 7 -3 15t8 12t11 4zM704 561q10 0 16 -8q43 -65 43 -144t-45 -145q-5 -7 -12.5 -8.5t-14 3t-8 12.5t2.5 15q39 55 39 122.5t-37 122.5q-5 7 -3.5 14.5t7.5 11.5t12 4z" />
<glyph unicode="&#xf058;" d="M353 849q-34 0 -62 -17q-26 -23 -29 -54q-3 -22 10 -52q10 -21 42 -25q13 -2 39 3t36 12q21 17 25 47q5 39 -2 57q-6 11 -23 19q-10 4 -31 9zM636 847q-20 0 -40 -10q-23 -12 -27 -42q-8 -111 5 -200q3 -24 0 -49v0q0 -20 -2 -29q0 -9 -2 -13q-2 -7 -8 -12 q-11 -8 -35 -12l-15 -2q-29 -5 -44 -3q-24 0 -32 7q-3 4 -2 16v6q0 35 -3 50q-2 18 -19.5 38.5t-41.5 31.5q-28 11 -57 3q-16 -5 -24 -36q-4 -18 -7 -56q-2 -20 -3 -26q-2 -16 -0.5 -50t5.5 -56.5t9 -66.5l1 -12q0 -76 -5 -113q-2 -45 -11 -133l-1 -12q-4 -30 7 -44 q11 -18 39 -22q14 -2 41 1t38 8q24 12 27 42q8 95 -2 183q-3 14 -3 43v7q0 12 1 18q1 11 6 17.5t21 11.5l36 8q27 4 54 0q9 0 20 -7q6 -6 9 -23q2 -9 3 -14q8 -22 18 -42q7 -13 19.5 -23t26.5 -14q23 -5 42 12q17 14 28 40q10 22 11.5 39.5t0 66t-5.5 70.5t-8 66l-2 12 q0 76 5 113q3 45 11 134l2 11q3 30 -8 44q-5 9 -30 15q-18 5 -39 8h-9zM690 148q-19 0 -42 -4q-27 -4 -37 -11q-21 -17 -25 -47q-4 -26 0 -52q2 -15 9.5 -22.5t22.5 -9.5q21 0 46 4q31 5 43 13q26 23 29 55q8 21 -5 49q-10 20 -41 25z" />
<glyph unicode="&#xf059;" d="M500 848q-115 0 -214 -58q-97 -57 -153 -153q-58 -99 -58 -214.5t58 -214.5q56 -96 153 -152q99 -58 214 -58t214 58q97 56 153 152q58 99 58 214.5t-58 214.5q-56 96 -152 153q-100 58 -215 58zM502 783q99 0 184 -50q83 -48 131 -131q50 -84 50 -183t-50 -184 q-48 -83 -131 -131q-85 -50 -183.5 -50t-183.5 50q-83 48 -131 131q-50 85 -50 184t50 183q48 83 131 131q85 50 183 50zM719 662v0h-192v-67h17q15 0 18.5 -2.5t3.5 -7.5q0 -2 -2 -5t-11 -13l-134 -140v129q0 19 3.5 26t10.5 11q4 2 25 2h13v67h-210v-67h18q16 0 22 -3.5 t9 -10.5t3 -29v-263q0 -23 -2.5 -29.5t-9 -10t-24.5 -3.5h-16v-67h210v67h-17q-18 0 -23.5 3t-8.5 10t-3 25v48l65 64l75 -121q10 -16 10 -20t-5 -6.5t-29 -2.5h-9v-67h217v67h-8q-18 0 -28 7q-7 4 -23 28l-124 188l104 101q13 12 20 17t12 6.5t19 1.5l24 1v66h-20z" />
<glyph unicode="&#xf05a;" d="M411 787q-31 -1 -64 -10q-27 -8 -54 -22q-20 -9 -38 -20l-14 -10q-50 -33 -120 -94q-67 -57 -108 -100q8 -1 23 5q12 4 18 5l99 27l-32 -26q-47 -38 -69 -59q-39 -36 -52 -62q11 4 42 19t46 21q26 11 40 12l-18 -16q-33 -30 -49 -46q-28 -27 -38 -44q1 -1 1 -4v-2l10 6 q33 20 52 29q32 16 47 18q-77 -83 -89 -125q19 13 55 32.5t55 26.5q-3 -8 -15 -23q-9 -12 -12.5 -18.5t-15.5 -21.5t-17 -23q-8 -14 -9 -25q30 29 73 53q-4 -10 -15 -27q-10 -15 -14 -23q-7 -13 -9 -26q9 10 27 18q11 5 33 12l11 4l-4 -4q-27 -21 -42 -39l8 1q2 1 9 -1l6 -1 l-32 -13q143 -188 395 -166l-13 28q10 18 19 63t19 66q16 34 48 51l25 14q24 14 37 17q18 4 49 -2q8 -1 32 -7q35 -9 52 -12q30 -6 46 -2l10 5q36 22 58 39q24 -5 34.5 -1.5t18.5 16.5l5 14q18 50 28 72l1 15q-7 21 -11 75q-2 32 -5 36q-13 18 -45 34q-20 10 -67 27 q-54 20 -79 33q-43 21 -66 47q8 25 -5 51q-10 19 -32 40q-25 18 -63 16q-24 -1 -64 -12q-30 6 -86 24q-29 9 -44 14q-8 1 -18 1h-4zM410 739q22 0 64 -12q27 -7 41 -9q-1 -4 -6.5 -8t-6.5 -7l-4 -6q-4 -5 -5.5 -8.5t0.5 -7.5l32 12q13 4 38 12q32 11 48 14q28 6 51 3l24 -31 q-24 20 -55 15q-19 -3 -56 -20q-33 -15 -49 -18q-11 -2 -33 -8q-17 -5 -25 -7q29 -22 75 -17q3 -15 18 -34.5t29 -22.5q-1 6 -7 20.5t-7 22.5q-3 14 4 25l9 6q17 10 26 13q16 5 27 -4q-10 -1 -26 -11l-8 -5q-6 -4 -8.5 -14t-0.5 -14q7 -20 39 -33q36 -14 90 -14 q-3 4 -16 18.5t-18 21.5q-9 11 -8 17q30 -30 81 -55q30 -14 89 -35q35 -12 49 -18q22 -10 31 -19q1 -5 -13 -22q-7 -9 -9 -13q-4 -7 -2 -10q-3 -7 7 -22q5 -8 22 -29l3 -4q-3 25 -1.5 36.5t6 9.5t8.5 -14.5t3 -28.5q0 -19 -7 -37l-35 8q-47 3 -84 15q-33 9 -66 28 q-21 12 -65 42l-30 20q-27 18 -79 60l-14 11l-50 19q14 -17 36 -41q20 -22 25 -30q7 -12 5 -24.5t-16 -36.5l-17 31l-7 55q-11 -40 -13 -66q-2 -36 13 -62q17 -30 58 -49l50 -7q-22 18 -30 29q-12 16 -8 31q15 -30 78 -55q35 -14 105 -32l24 -6q15 -6 24 -15q-7 -6 -13 -9 q-4 -2 -13 -4.5t-15 -4.5l-28 9q-36 11 -51 18q-26 11 -36 25q4 -6 -27 -14q-18 -4 -63 -13q-29 -5 -37 -7q-13 -3 -3 -4q-35 1 -72 23q-33 19 -61 50l-9 3q0 -17 11 -35q6 -11 22.5 -32t22.5 -31l38 -17l-10 -6q-16 -10 -23 -16q-13 -10 -19 -21l-2 -6q-5 -9 -6 -14 q-2 -8 1 -14q21 23 61 33l-16 -25q2 -18 -9 -49q-2 5 -5 10q-47 20 -71 39q6 -20 25 -44q16 -21 37 -38q-5 -12 -12 -23q-36 25 -54 42q5 -9 11 -27q9 -24 15 -34q-133 10 -217 82l60 34q-10 -2 -47 -11l-30 -8l-7 8l24 12q29 14 42 22q23 14 29 26v0l-6 -2l-61 -3 q-4 13 0 27q2 9 10.5 24.5t9.5 23.5q2 13 -7 25q-35 46 -49 80q-20 46 -15 90l1 -2q7 -15 13 -20l2 17q2 18 5 26v-1q6 -20 11 -29q8 -16 21 -24l1 2q-14 50 -2 95q13 51 56 78q-6 -2 -23 -4q-26 -4 -41 -10q2 1 5 10q11 29 23 39q6 4 15 13q11 10 19 15q24 19 43 28 q26 14 59 19q8 1 16 1h4zM425 692q-28 0 -60 -12l-13 -10q-14 -17 -19 -26q-10 -14 -12 -29l3 -4q13 16 37 28q0 -18 9.5 -33.5t25.5 -24.5h3q-3 19 -1 39.5t9 37.5q7 6 23 14q18 10 25 17q-14 4 -30 3zM625 633v0q8 0 15 -3q-6 -3 -8 -11q-1 -4 0 -7q-11 8 -11 21h4z M462 632q2 -7 14 -22l9 -11q-28 -2 -60 -11q5 -4 14.5 -9t13.5 -9l-16 -6q-21 -7 -31 -11q-16 -8 -28 -19l5 -2q31 6 66 5.5t67 -7.5l3 2l-25 46l38 8q-39 37 -70 46zM662 618q8 -7 15 -16q-11 -3 -22 0q5 3 7 10v6zM599 594q13 -39 37 -41q33 -6 62 -1q-12 7 -39 13 q-22 6 -32 10q-17 7 -28 19zM368 532q-23 -17 -32.5 -42t-5.5 -53q2 -7 1 -17q-1 -6 -4 -17q-4 -17 -3 -25q0 -13 8 -22q22 -25 63 -55l-2 8q-35 41 -46 74l17 -6q36 -13 55 -16q-6 10 -22 29q-28 34 -36 53q-14 32 -4 62q0 5 6 12q7 10 5 15zM728 403q2 0 5 -1q8 -2 9 -4 q-3 -2 -8.5 -7t-8.5 -6l1 6q0 9 2 12zM768 382v0q4 0 9 -4h1l-13 -13l1 17h2zM798 371v0l10 -6q-1 0 -6 -7t-5.5 -6.5t-0.5 6.5q0 13 2 13zM829 357v0l9 -2q-1 -1 -4 -7q-6 -11 -11 -11l4 8v9q0 3 2 3zM861 351l12 -3l-13 -22zM896 345q1 0 8 -2l4 -2l-15 -11q-1 9 -0.5 12 t3.5 3zM933 339q5 0 7 -2q0 -5 -7 -12q-4 -4 -5 -7v6q2 10 0 15h5z" />
<glyph unicode="&#xf05b;" d="M340 803l-5 -1q-10 -3 -12 -7t-2 -17l1 -16l-10 -2q-8 -2 -9.5 -1.5t-2.5 4.5q-7 17 -10 23t-5.5 6.5t-6.5 -5.5q-5 -7 -5 -8t8 -14l8 -14l-7 -6q-6 -7 -8 -7t-13 9q-16 14 -21 14q-1 0 -1 -11v-10l14 -8q13 -7 12 -10.5t-2 -8.5l-2 -6q-1 -2 -17 0q-18 3 -22 0.5 t4 -13.5q2 -4 4.5 -4.5t13.5 0.5l16 2l2 -10q2 -11 0.5 -12t-13.5 -5.5t-18 -8.5l-5 -3l5 -4q8 -6 12 -6t15 7l13 8l9 -9q4 -5 3.5 -7t-8.5 -12l-3 -4q-8 -9 -9 -13t0.5 -5t8.5 -1h11l7 14q7 14 10 14t3.5 -2t-0.5 -7l-21 -146h-14q-10 0 -12 0.5t-2 4.5q-1 8 -2 9t-5 -1 t-3 -5t-1 -4.5t-8 -3.5q-11 -4 -9 -4.5t11.5 3.5t10.5 2t-0.5 -3t-6.5 -2t-10.5 -7.5t-7.5 -12.5q-1 -3 -0.5 -4t2.5 0t2.5 0t-0.5 -4l-1 -6l13 10v-7q0 -8 1.5 -8.5t12.5 -22.5q27 -53 50 -73q11 -10 15.5 -16.5t8.5 -18.5q2 -8 2.5 -8.5t1.5 3.5q1 14 4 10.5t4 -20.5 q1 -12 3 -15.5t2 5.5q0 5 3 14l3 8v-7q0 -8 2.5 -9.5t3.5 5.5l1 6l6 -5q6 -6 14 -24q6 -15 10.5 -20.5t10.5 -5.5t10 -3.5t11 -15.5q5 -9 23.5 -28t26.5 -24q5 -2 20 -2t26 3q6 2 11.5 5.5t13.5 12.5q14 14 14 18t11 10t14 13t5 6.5t13.5 -14t11.5 -15.5t2 1t3.5 0.5 t2.5 -13.5l2 -14l1 11q3 18 8 18q3 0 16.5 12.5t18.5 18.5v1q4 5 5.5 6t8 -2t9 -3t9.5 13l8 12q1 1 5 -4t12 -9.5t13 -4.5t11 3.5t9 9t10.5 16.5t10.5 23q3 8 4 9t2 -2q2 -5 4 -4t6 11.5t8.5 11t5.5 3t2 2.5t4 -2t4.5 -2t5.5 1q6 3 10 17q6 16 11.5 25t22.5 27q21 22 23 27 l2 6l3 -6q3 -6 3.5 -6t-0.5 8v8l13 -13l-1 8q-1 6 -0.5 7t3.5 0.5t3 0t-2 4.5l-4 6l5 -4q7 -7 1 8v1q-3 6 -3 7t5 -1v0q6 -2 6.5 -1.5t-2.5 3.5q-9 11 -28 14q-9 1 -15 4t-13.5 3t-18 5.5t-13.5 5.5t-10.5 11t-8.5 17.5t0 8.5t5 7l17 15q5 5 7.5 6t8 -1t19.5 -9l1 -1 q16 -8 21 -8t23.5 7.5t26.5 16.5t9 11.5t15.5 4.5t20.5 5q9 5 12.5 16t-1.5 18q-3 5 -20 16t-26 14t-35 3q-18 0 -24 -0.5t-14 -4.5q-11 -5 -22 -15t-15 -17q-2 -6 -2 -8t2 -6q4 -7 2.5 -8.5t-5 1t-5 7.5t-11.5 18.5t-12.5 18.5t-2.5 12q0 14 15 14q8 0 13.5 4.5t11 15.5 t4.5 24.5t-7 21.5q-10 13 -53 24q-15 4 -26 4.5t-32 -3.5q-26 -4 -35.5 -10t-14.5 -20q-3 -8 -2.5 -18.5t4 -16.5t15.5 -12.5t26 -10.5t24 -10.5t20 -8.5q25 -3 41 -31q7 -14 7.5 -19.5t-6.5 -12.5q-4 -5 -9 -4t-8.5 9.5t-10.5 16.5t-13 10t-16 14.5t-20.5 17.5t-27.5 6 q-14 1 -34 -1.5t-32 -7t-19 -12.5t-7 -17q0 -5 -2 -5t-17.5 10t-22.5 16q-2 2 -2 3t2 2t2 1.5t-2 0.5t-2 1l4 3h-2t-2 0.5t2 2.5l2 1q0 1 -2 1h-2l4 3q0 1 -2 1t-2 0.5t2 1.5l2 2h-2h-2l2 2q3 2 0.5 2t-2.5 11l-1 11l-1 -11q0 -11 -2.5 -11t0.5 -2l2 -2h-2h-2l2 -2 q2 -1 2 -1.5t-2 -0.5t-2 -1l4 -3h-2t-2 -1l2 -1q2 -2 2 -2.5t-2 -0.5h-2l4 -3q0 -1 -2 -1t-2 -0.5t2 -1.5t0 -4t-13 -11l-4 -3q-7 -6 -10 -7t-5.5 2.5t-7.5 15.5l-4 8q-7 17 -10 21q-5 6 -15 8q-7 1 -32 1h-5q-33 -1 -43 -3t-13 -10l-3 -5l-8 4q-8 4 -6.5 7.5t3 10t4.5 6.5 l18 -3q15 -3 18 -1t-1 11l-4 9l-33 -3l-4 18q-1 2 2 4t12 5q14 6 19 9l5 4l-8 6q-8 5 -10 4l-27 -16l-15 15l10 12q17 20 15 22t-12 2q-6 0 -8.5 -2t-7.5 -12l-8 -15l-10 3q-7 2 -8.5 3.5t-0.5 5t2 20.5zM323 757v-11q0 -8 -1 -10t-4 -3l-6 -2q-1 0 -4.5 11t-3 11.5t9.5 2.5 zM337 756q3 0 9 -2t6 -3.5t-4 -10.5q-4 -6 -7 -8t-7 1q-2 1 -1.5 11t3.5 11zM291 746q2 0 7 -10q5 -7 5 -8.5t-3 -4.5v0q-4 -4 -5 -4t-9 7l-8 7l6 7q6 6 7 6zM364 744l7 -7l7 -6l-9 -6q-8 -5 -10.5 -5.5t-5.5 2.5t-2.5 5t6.5 9zM324 729q4 0 4.5 -1.5t-0.5 -9.5 q-1 -11 -1.5 -11.5t-5.5 -1.5t-13.5 5.5t-4.5 10t10.5 6t10.5 2.5zM335 728q1 0 6.5 -2.5t10.5 -8t5 -7t-7 -4.5q-9 -3 -17 -1q-2 1 -2.5 3t0.5 7l1 10q1 3 3 3zM271 723l10 -6q10 -6 9 -8.5t-1 -5.5t-2 -3l-16 3q-8 2 -2 14zM381 718q2 0 3 -3l4 -15h-12q-9 0 -11 0.5 t-2.5 4t0.5 5t5 3.5l3 1q7 4 9 4h1zM91 716q-21 0 -33 -5q-17 -7 -31.5 -21.5t-21.5 -31.5q-5 -13 -5 -34t5 -35q10 -29 36 -56q14 -15 18 -24t4 -25q-1 -13 1 -13t3 -11l2 -10h18q16 0 18.5 1.5t2.5 11.5q0 8 3.5 8t3.5 5v5l8 -4q17 -9 42.5 -11.5t41.5 3.5q10 4 3 2 q-27 -5 -54 -1.5t-40 13.5l-4 4l3 14q3 9 6 14t16 18q15 15 23.5 27.5t14.5 29.5q6 14 6 34.5t-5 33.5q-7 17 -21 31.5t-32 21.5q-12 5 -32 5zM299 713q2 0 7 -4t5.5 -6t-2 -7.5t-7.5 -8t-7 -2.5t-1.5 11.5t2.5 14t3 2.5v0zM356 705q3 0 4 -5.5t-1 -13t-5 -9.5t-7 1.5 t-3.5 13t4.5 10.5zM570 705q-1 0 -1 -4q0 -7 1 -3t0 7v0zM264 691h13q9 0 10.5 -0.5t2 -4.5t-1 -5.5t-7.5 -4.5l-2 -1q-8 -3 -9.5 -2t-3.5 10zM366 691q1 0 5 -1q7 -1 10.5 -2t4 -5t-1.5 -8t-4 -4t-10.5 4.5t-7.5 7.5t1 5.5t3 2.5zM308 685q2 0 2 -1v-6q-1 -16 -10 -3 q-4 5 -3.5 6.5t7.5 2.5zM322 685l0.5 -1t-0.5 -3.5t-1 0.5t1 4v0zM329 685q1 0 2.5 -1t-0.5 -5t-4 -4t-2 4.5t4 5.5zM344 676q1 0 3.5 -2.5t1.5 -4t-2.5 -1.5t-3 3.5t-0.5 4.5h1zM320 674v-1q1 -3 0 -5.5t-1 2.5q0 3 1 4v0zM332 673q1 1 2 -3.5t0.5 -5t-3 2.5t-0.5 6h1z M794 672q4 0 6 -1.5t2 -3t-4 -4.5q-5 -5 -6 -5t-7 6t-3 6t9 1zM357 672q1 0 6.5 -4t7.5 -6.5t1.5 -4.5t-4.5 -6l-6 -6l-6 8q-5 8 -5.5 10.5t2.5 6.5q2 1 3 1zM295 672q2 -1 5 -3l4 -4l-7 -9q-7 -9 -8 -9t-6.5 6t-5.5 7.5t9 6.5q7 4 9 4v1zM765 668q3 0 4 -1t3 -5t2 -5t-3 -1 q-5 0 -13 3.5t-6.5 5t9.5 2.5zM326 667q2 0 3.5 -2t1 -2.5t-4 -0.5t-3.5 2.5t2 2.5h1zM379 655l8 -7l8 -6l-6 -14q-6 -14 -7 -14t-9 12t-8 14t7 9zM305 648q2 -1 0 -6q-1 -3 -3 -3t0 5q2 3 3 3v0v1zM337 643v0v0q1 0 1 -4t-3 -4t-3 0.5t2 2.5zM316 642l1.5 -0.5t1.5 -3.5 t-2 -3t-2 3.5t1 3.5zM350 633q2 0 8.5 -17t9 -18.5t7.5 4.5t-5 -14l-8 -16q-2 -4 -2.5 -4.5t-1.5 1.5v1q-2 5 -5.5 33.5t-2.5 29.5v0zM315 630q2 0 2 -1t-2.5 -2t-2.5 1t3 2zM338 630q2 0 2 -2t-1 -2t-2.5 2t1.5 2zM332 623q1 0 3.5 -2t2.5 -2.5t-3.5 -0.5t-3.5 2.5t1 2.5v0 zM768 608q4 0 10 -7q3 -2 3 -3t-4 -2q-13 -3 -18 0q-2 2 3 8q3 4 6 4zM335 607q2 0 2 -0.5t-2 -3t-3 -2.5t-1 3t4 3zM342 601q2 0 3 -9.5t0.5 -10.5t-7.5 5l-7 5l5 5q5 5 6 5zM310 599q2 0 2 -5t2.5 -6t-3.5 -6l-5 -5l1 7q1 7 1 11t2 4zM782 593q2 0 3 -4t5.5 -8t4.5 -5.5 t-3.5 -5t-10 -16.5t-19.5 -26.5t-18 -20t-8.5 -7t-13.5 3.5q-23 9 -48 0q-22 -7 -40 0q-4 2 -5 4t-1 9v10h12q11 0 11 3.5t4 3.5t12 3.5t14 8.5l5 4h-17q-14 0 -25 2.5t-7.5 4.5t-1 2t-5 0.5t1.5 1.5t2 2t-1.5 2t-1.5 1.5t2 1.5t-2 5t-5 1t-5 -3t-5 1.5t-0.5 5t2.5 5t8 2.5 q9 1 20 -3l11 -5l22 5q22 5 31 4q31 -3 38 3q4 4 13.5 3t15.5 0q3 1 5 1zM327 586l8 -5q7 -6 7 -6.5t-13.5 -0.5t-13.5 1.5t6 6.5zM862 581q5 0 14 -3t9 -4.5t5 -8.5l5 -8l-6 -1q-4 -1 -6.5 -0.5t-14.5 6.5l-2 1q-13 6 -15 8t1.5 5.5t6.5 4.5h3zM932 580q11 0 11 -2 t-10.5 -10.5t-13 -8.5t-6 -1t-3.5 -0.5t3 5.5q3 6 3 10t3 5.5t10 1.5h3zM898 576q10 0 11.5 -2.5t-3.5 -8.5q-4 -4 -6 -4t-6 5q-7 7 -6 8.5t10 1.5zM620 567h3q4 -1 -2.5 -1t-3.5 1h3zM310 563h16h17l-7 -6q-8 -6 -9 -6t-9 6zM620 561q2 0 3 -1q4 -1 -2.5 -1t-3.5 1z M304 557q2 0 8.5 -4.5t6.5 -6t-10 -8.5l-10 -7l2 7q1 6 1 12.5t2 6.5zM349 557l0.5 -0.5t0.5 -2.5t-4 -8q-4 -4 -5.5 -4.5t-4 1.5t-2 3t6.5 5.5t8 4.5v1zM326 540h1.5t3.5 -2q5 -4 3.5 -7.5t-14 -3.5t-12.5 1t9 7h1q6 5 8 5zM313 517q8 0 9 -0.5t-2.5 -4t-5 -3.5t-6.5 4 l-5 4h10zM299 509q1 0 5 -3t4 -4t-3.5 -5t-6.5 -5.5t-3.5 0t0.5 6.5q1 11 4 11zM81 504h5h27l-1 -8q-2 -8 -3 -9.5t-21 -1.5q-17 0 -20.5 2t-3.5 12q0 4 2.5 4.5t14.5 0.5zM810 347h1t3.5 -5.5t2.5 -7t-3.5 -0.5t-4.5 3l-1 5q-1 2 1 4q0 1 1 1zM802 346l0.5 -4t-1 -7 t-3.5 -3t-1.5 4t3 7zM772 325q3 0 0 -12t-6 -19l-3 -8l1 9q2 25 6 28zM759 305l-1 -7q-2 -7 -4 -15q-2 -6 -3.5 -7t-8.5 -1t-14.5 2.5t-7.5 4t8.5 0.5t13 1.5t10.5 12.5zM710 286l7 -7q6 -5 15 -8t13 -1.5t3 -2t-6 -7.5q-6 -5 -11.5 -4t-13.5 9q-6 6 -7.5 8.5t-0.5 6.5z M590 244q5 0 18.5 -9t20 -10t7.5 -2.5t-4 -5.5q-15 -10 -36 15q-8 10 -8 11t2 1z" />
<glyph unicode="&#xf05c;" d="M502 827q-96 0 -96.5 -1.5t-1.5 -137t-1.5 -138t-2 -2.5t-134.5 43.5t-133.5 42.5t-30 -94t-28.5 -94l232 -77q21 -8 21 -10t-79.5 -117.5t-79.5 -116.5t79.5 -56.5t80.5 -55.5t81 110t82 110t41 -55l83 -115q43 -60 44 -60t79.5 58t79 59t-76 112.5t-76 113.5 t129.5 45.5t129.5 44t-28 94t-29.5 94.5t-128 -42t-128.5 -43t-2.5 7.5t-1 38.5l-3 108q-4 133 -5 133.5t-97 0.5z" />
<glyph unicode="&#xf05d;" d="M444 999q-20 0 -42 -5q-66 -15 -96 -74q-27 -52 -21 -127q5 -69 34 -129q23 -49 68 -110q39 -54 81 -99.5t62 -57.5q0 -1 -1 -3q-5 -31 -15.5 -55t-27.5 -47q-16 -19 -38.5 -41t-70.5 -64q-27 -23 -43 -50t-27 -64q-3 -13 -10 -42q-11 -49 -22.5 -73.5t-33.5 -45.5 q-27 -24 -47.5 -33.5t-54.5 -14.5q-27 -4 -41 -11q-11 -6 -21 -16q-2 -2 -2 -4.5t2 -4.5t4.5 -2t4.5 2q9 8 18 13q12 7 36 10q36 5 58 15q23 11 52 37q24 22 37 49q11 25 23 76q6 28 10 41q10 35 25 61t40 47q49 43 72 65t39 42q23 30 35 63q-5 -33 -25 -71l-20 -36 q-19 -33 -24 -55.5t0 -50.5q5 -34 2 -46l-1 -1q-4 -5 0 -9q2 -2 5 -2t5 2t3 6q5 15 -2 52q-4 26 0.5 46t22.5 51l21 37q33 66 27 121q0 2 -1 3q26 8 72 29q63 29 115 63q68 45 105 93q46 57 70 123q26 72 17 131q-10 66 -64 103q-40 26 -83 26q-34 0 -73 -18 q-21 -10 -56 -32q-14 -9 -19 -12q-9 -5 -14 -5t-12 7q-5 5 -16 18q-30 35 -53 51q-41 28 -89 28zM464 87h-1h1z" />
<glyph unicode="&#xf05e;" d="M75 850v-170h510v170h-510zM755 850v-170h170v170h-170zM75 510v-170h850v170h-850zM75 170v-170h340v170h-340zM585 170v-170h340v170h-340z" />
<glyph unicode="&#xf05f;" d="M809 850q-25 0 -47 -11q-35 -15 -54 -52q-17 -34 -13 -74v-320q-16 15 -46 46q-56 57 -87 83q-24 17 -53.5 18t-57 -11.5t-45.5 -35.5l-101 -100v134q1 146 0 219q-4 42 -36.5 72.5t-74.5 30.5q-34 2 -62.5 -16t-44 -49t-11.5 -64v-234q-1 -254 0 -381q2 -36 27 -63.5 t60.5 -37.5t68.5 4q20 9 40 27q12 10 34 34q20 20 30 29l164 164l90 -89l147 -147q28 -24 66 -25.5t70.5 19t44.5 55.5q5 21 6 47q1 15 1 47q-1 29 0 43v203q0 221 -1 331q-2 29 -18.5 52.5t-42.5 37.5t-54 14zM193 783q20 1 33 -15t13 -36t-15 -33.5t-35 -12t-34.5 15.5 t-13.5 33.5t15.5 34t34.5 13.5h2zM812 783q20 1 33 -15t13 -36t-14.5 -33.5t-35 -12t-34.5 15.5t-13.5 33.5t15.5 34t34 13.5h2zM502 474q17 0 30 -12.5t16 -30t-6 -32.5t-27 -20t-35.5 2.5t-23.5 24.5q-7 15 -2.5 31t17.5 26.5t29 10.5h2zM812 164q18 0 31 -13.5t15 -32 t-9 -33t-29.5 -17.5t-35 6t-21.5 27q-5 15 0.5 30t18 24.5t28.5 8.5h2zM193 164q20 0 33 -16t12.5 -36.5t-16.5 -32.5q-14 -14 -34 -12t-33.5 16.5t-12.5 34t15.5 33t33.5 13.5h2z" />
<glyph unicode="&#xf060;" d="M500 821q-116 0 -215 -58q-96 -57 -152 -153q-58 -99 -58 -214q0 -89 35 -170q34 -78 96 -137t142 -90l45 119q46 121 53 131l-10 4q-13 5 -25 15q-16 12 -29 31q-15 23 -24 53q-9 36 -9 82q2 72 35 135q23 46 60 82q19 18 32 27v0l-2 -20q-1 -25 4 -48q6 -32 22 -56 q19 -30 53 -46l15 -6q18 -8 32 -20q21 -16 33 -37q14 -27 14 -60q-2 -62 -36 -99q-20 -22 -56 -38q10 -14 92 -235l5 -13q80 30 142 89t96 138q35 80 35 169q0 115 -58 214q-57 96 -153 153q-99 58 -214 58z" />
<glyph unicode="&#xf061;" d="M500 849q-115 0 -215 -58q-96 -56 -152 -153q-58 -99 -58 -214q0 -108 52 -203q49 -92 136 -150q89 -60 195 -70v0q0 113 -58 224q-37 71 -90 130l-4 7q-5 8 -6 17q-2 12 2 23l79 200l5 9q6 11 15 18q12 9 27 9h144q15 0 27 -9q9 -7 15 -18l5 -9l79 -200q4 -11 2 -23 q-1 -9 -6 -17l-4 -7q-53 -59 -90 -130q-58 -111 -58 -224v0q106 10 195 70q87 58 136 150q52 95 52 203q0 115 -58 214q-56 97 -152 153q-100 58 -215 58zM500 491q-28 0 -47.5 -19.5t-19.5 -47.5q0 -24 15 -42.5t38 -23.5v-359h28v359q23 5 38 23.5t15 42.5 q0 28 -19.5 47.5t-47.5 19.5z" />
<glyph unicode="&#xf062;" d="M224 849q-30 0 -55.5 -15t-40.5 -40.5t-15 -56.5v-447q0 -30 15 -55.5t40.5 -40.5t55.5 -15h333q0 -36 -18 -68q-15 -27 -43 -50q-22 -19 -51 -35q-20 -12 -42 -21l-18 -6l30 1q38 3 75 11q50 10 91 27q52 22 84 53q39 38 50 88h61q30 0 55.5 15t40.5 40.5t15 55.5v447 q0 31 -15 56.5t-40.5 40.5t-55.5 15h-552zM387 759q2 0 4 -1q3 -3 2.5 -6.5t-5.5 -9.5q-7 -12 -10 -21q-5 -16 -4 -36v-9q0 -12 1 -16q3 -8 11 -12t26 -4q9 0 15 4q3 2 8.5 8.5t9.5 9.5q8 4 21 4q26 0 33 -25q7 25 33 25q13 0 20 -4q5 -3 10 -9.5t9 -8.5q6 -4 15 -4 q18 0 26 4t10 12q2 4 2 16v9q1 20 -5 36q-3 9 -10 21q-4 6 -5 9.5t3 6.5q5 5 20.5 -9t29 -34.5t14.5 -32.5q1 -27 -3 -44q-8 -28 -32 -41q18 -19 30 -43q9 -18 14 -37l3 -16l-73 1l-4 12q-5 14 -15 25q-13 16 -31 25q-24 11 -54 9q-45 -2 -64 -10q-21 -9 -29 -32 q-6 -20 -6 -70q0 -66 28 -97q25 -28 75 -30q44 -1 67 12q16 9 21 25q2 8 1 14v0l-46 -2l-25 68h156q0 -45 -14 -82q-17 -48 -53 -74q-44 -31 -113 -28q-100 5 -147 75q-35 52 -36 128q-1 85 41 127q-23 13 -31 39q-4 15 -4 44v2q0 16 11 35q11 17 25.5 29.5t23.5 12.5z" />
<glyph unicode="&#xf063;" d="M300 847q-15 0 -40 -22.5t-43 -51.5q-20 -33 -20 -59v-5q0 -31 2 -49q4 -30 16 -51q15 -27 43 -43q-41 -41 -59 -103q-13 -50 -12 -115q1 -81 25 -148q31 -86 95 -136q76 -60 195 -66.5t195 47.5q63 45 93 127q23 66 23 143h-269l44 -118l79 4v-10q-1 -11 -6 -23 q-7 -15 -21 -26q-18 -15 -46 -22q-34 -8 -81 -6q-86 3 -129 51q-48 53 -48 168q0 64 5 96q6 38 23.5 57.5t51.5 28.5q31 8 91 11q42 1 76 -11q29 -10 52 -30q18 -16 32 -37q9 -15 15 -32l4 -13l125 -2l-2 15q-4 20 -12 41q-10 28 -24 53q-19 32 -43 56q42 23 55 71 q8 29 6 77q-1 20 -26 56q-22 35 -48 58q-27 25 -37 16q-6 -5 -4 -12q1 -4 8 -16q12 -20 18 -36q9 -28 8 -62l-1 -15q0 -20 -2 -28q-4 -14 -17 -20q-15 -7 -46 -7q-16 0 -26 7q-6 3 -15 14.5t-17 15.5q-13 8 -35 8q-45 0 -57 -43q-12 43 -57 43q-23 0 -36 -8q-8 -4 -17 -15.5 t-15 -14.5q-10 -7 -25 -7q-31 0 -46 7q-13 6 -17 20q-3 8 -3 28v15q-2 34 8 62q5 16 17 36q8 12 9 16q1 7 -5 12q-2 3 -7 3z" />
<glyph unicode="&#xf064;" d="M499 912q-93 -1 -166 -11q-81 -11 -128 -33l-14 -8q-16 -10 -32 -25q-22 -21 -38 -47q-21 -33 -32 -73q-14 -47 -14 -103v-37q0 -77 1 -119q3 -113 18 -188q19 -95 62 -154q50 -67 134 -89q109 -29 210 -24q46 3 88 12q30 7 55 17l19 8l-4 75l-22 -6q-28 -6 -57 -10 q-41 -6 -78 -4q-53 1 -80 7q-43 8 -67 30q-29 25 -35 72q-2 14 -2 29l25 -6q31 -6 65 -10q48 -7 93 -9q42 -2 92 2q32 2 88 9t107 30q49 23 81.5 54.5t38.5 63.5q9 45 13 109q4 46 5 97v41q0 56 -14 103q-11 40 -32 73q-16 26 -38 47q-15 15 -32 25q-12 8 -14 8 q-46 22 -127 33q-74 10 -166 11h-3zM367 757q73 0 109 -56l24 -39l24 39q36 56 109 56q63 0 101 -43t38 -117v-239h-95v232q0 74 -61 74q-69 0 -69 -88v-127h-94v127q0 88 -69 88q-61 0 -61 -74v-232h-95v239q0 74 38 117t101 43z" />
<glyph unicode="&#xf065;" d="M499 910q-93 0 -166 -10q-81 -12 -128 -33l-14 -8q-16 -10 -32 -25q-22 -21 -38 -47q-21 -33 -32 -73q-14 -47 -14 -103v-37q0 -77 1 -120q3 -112 18 -187q19 -95 62 -154q50 -67 134 -90q109 -28 210 -23q46 3 88 12q30 7 55 17l19 8l-4 75l-22 -6q-28 -7 -57 -10 q-41 -6 -78 -5q-53 2 -80 8q-43 8 -67 30q-29 25 -35 72q-2 14 -2 29l25 -6q31 -6 65 -10q48 -7 93 -9q42 -2 92 2q32 2 88 9t107 30q49 22 81.5 54t38.5 64q9 45 13 109q4 46 5 97v41q0 56 -14 103q-11 40 -32 73q-16 26 -38 47q-16 15 -32 25l-14 8q-46 21 -127 33 q-74 10 -166 10h-3zM269 596q26 0 45 -19t19 -45.5t-19 -45.5t-45.5 -19t-45 19t-18.5 45.5t18.5 45.5t45.5 19zM500 596q27 0 45.5 -19t18.5 -45.5t-18.5 -45.5t-45.5 -19t-45.5 19t-18.5 45.5t18.5 45.5t45.5 19zM731 596q27 0 45.5 -19t18.5 -45.5t-18.5 -45.5t-45 -19 t-45.5 19t-19 45.5t19 45.5t45 19z" />
<glyph unicode="&#xf066;" d="M854 849q-27 0 -46 -19t-19 -45.5t18.5 -45t45 -18.5t45.5 18.5t19 45t-18.5 45.5t-44.5 19zM205 832l-34 -34q-83 -83 -88 -154t68 -144l82 -82q45 -46 48.5 -78t-33.5 -69v0q-16 -19 -15.5 -44.5t18.5 -43.5t43.5 -18.5t44.5 15.5l1 -1q25 25 47 32t45.5 -4.5 t53.5 -41.5l95 -96q75 -74 147.5 -70t155.5 87l33 34l-71 72l-18 -18q-47 -47 -84 -47.5t-82 44.5l-112 112q-86 86 -169 17l-11 11q35 42 31.5 83t-45.5 82l-100 101q-31 31 -40.5 56.5t1 51.5t42.5 59l17 17zM703 698q-28 0 -46.5 -19t-18.5 -45.5t18.5 -45.5t45 -19 t45.5 19t19 45.5t-18.5 45t-44.5 19.5zM551 547q-27 0 -46 -19t-19 -45.5t19 -45.5t45.5 -19t45.5 19t19 45.5t-19 45t-45 19.5z" />
<glyph unicode="&#xf067;" d="M500 847q-115 0 -215 -58q-96 -56 -152 -152q-58 -100 -58 -215t58 -215q56 -96 152 -152q100 -58 215 -58t215 58q96 56 152 152q58 100 58 215t-58 215q-56 96 -152 152q-100 58 -215 58zM500 765q93 0 173 -46q78 -46 124 -124q46 -80 46 -173t-46 -173 q-46 -78 -124 -124q-80 -46 -173 -46q-36 0 -72 7l389 336l-388 336q35 7 71 7zM333 722l361 -302l-358 -300q-82 45 -130 124q-49 82 -49 177.5t48 176.5q48 79 128 124z" />
<glyph unicode="&#xf068;" d="M225 847q-37 0 -70.5 -18.5t-54.5 -50t-24 -68.5v-1q-1 -113 -1 -337v-206q-4 -40 13.5 -77.5t50.5 -62t74 -27.5h1q112 -1 337 -1h206q40 -4 77.5 13.5t62 50.5t27.5 74v1q1 113 1 338v207q4 41 -15 79t-54 61.5t-77 24.5h-554zM636 813h143q31 0 58 -19t42 -49t12 -61 v-209q0 -225 -1 -337q-2 -31 -21.5 -56.5t-49 -39t-60.5 -10.5h-395v204h272l-1 203l-271 -1v172h272v203z" />
<glyph unicode="&#xf069;" d="M500 847l-518 -301h145v-549h746v549h145zM624 603q30 0 58 -11t49 -32.5t32.5 -49t11.5 -57.5q0 -41 -20.5 -75.5t-55 -54.5t-75.5 -20q-8 0 -17 1l-17 -79q23 -9 36.5 -28.5t13.5 -43.5q0 -33 -23 -55.5t-55 -22.5t-55 22.5t-23 55.5q0 16 7 31l-88 57 q-15 -17 -35.5 -27t-43.5 -10q-43 0 -73.5 30.5t-30.5 73.5t30.5 73.5t73.5 30.5q26 0 49 -13t38 -35l73 36q-10 26 -10 53q0 30 11.5 57.5t32.5 49t48.5 32.5t57.5 11zM495 376l-73 -35q5 -16 5 -33q0 -24 -10 -45l88 -58q23 25 57 25h3l16 79q-27 8 -49 25.5t-37 41.5z " />
<glyph unicode="&#xf06a;" d="M539 848q-32 0 -55 -22t-25 -55t20.5 -58t56 -27t58.5 20.5t27 56t-20.5 59t-56.5 26.5h-5zM452 753l-232 -118q20 -20 25 -48l231 118q-19 20 -24 48zM619 726q-13 -25 -38 -38l183 -184q13 25 39 38zM477 704l-135 -265l40 -40l143 280q-28 5 -48 25zM581 688 q-22 -11 -46 -10l-8 1l21 -132l56 -9zM155 654q-32 0 -55 -22.5t-25 -55t20.5 -58t56.5 -27t59 21t26.5 56t-21 58.5t-55.5 27h-6zM245 586q1 -9 1 -18q-1 -19 -10 -35l132 -21l26 50zM470 550l-26 -51l311 -49q-1 8 -1 17q1 19 10 36zM842 544q-32 -1 -55 -23t-24.5 -55 t21 -58t56 -27t58.5 20.5t27 56.5t-20.5 59t-56.5 27h-6zM236 531q-13 -25 -39 -38l210 -210l51 25zM196 493q-21 -11 -44 -10l-9 1l40 -256q21 10 45 9l8 -1zM560 471l48 -311q21 10 44 9l10 -1l-46 294zM755 448l-118 -60l8 -56l135 68q-20 20 -25 48zM781 399l-119 -231 q28 -5 48 -25l119 231q-28 5 -48 25zM306 370l-68 -134q28 -5 48 -25l60 119zM568 353l-281 -143q19 -20 24 -48l265 135zM513 253l-51 -25l106 -107q13 25 39 38zM222 229q-32 0 -55.5 -22.5t-25 -55t21 -57.5t56 -27t58.5 20.5t27 56t-20.5 58.5t-56.5 27h-5zM311 161 q2 -9 1 -18q-1 -19 -9 -35l256 -41q-1 9 -1 18q1 18 10 35zM646 161q-32 0 -55 -22.5t-24.5 -55t20.5 -58t56 -27t59 21t27 56t-20.5 58.5t-56.5 27h-6z" />
<glyph unicode="&#xf06b;" d="M219 809q-39 0 -72 -18.5t-52.5 -50.5t-19.5 -69v-536q0 -37 19.5 -68.5t52.5 -50t72 -18.5h562q39 0 72 18.5t52.5 50t19.5 68.5v536q0 37 -19.5 69t-52.5 50.5t-72 18.5h-562zM222 657h93v-505h-93v505zM383 657h247q40 0 74 -19t54 -51.5t20 -70.5v-222 q0 -39 -20 -71.5t-54 -51.5t-74 -19h-184l65 88h114q25 0 42.5 17t17.5 41v213q0 24 -17.5 40.5t-42.5 16.5h-149v-290l-93 -126v505z" />
<glyph unicode="&#xf06c;" d="M500 843q-83 0 -160.5 -32t-136 -91t-90.5 -136t-32 -160q0 -114 57 -212q56 -95 150 -150q98 -58 212 -58t212 58q94 55 150 150q57 98 57 212q0 83 -32 160t-90.5 136t-136 91t-160.5 32zM430 601q33 0 61.5 -16t45.5 -43q25 12 54 12q34 0 63 -16.5t46 -45.5t17 -63 l-1 -7h1q36 0 62 -26t26 -62.5t-26 -62t-62 -25.5h-415q-29 0 -53.5 14.5t-39 39t-14.5 53.5t14.5 53.5t39 39t53.5 14.5h3q-1 8 -1 16q0 34 17 63t46 45.5t63 16.5z" />
<glyph unicode="&#xf06d;" d="M158 849q-34 0 -58.5 -24.5t-24.5 -58.5v-684q0 -35 24.5 -59t58.5 -24h684q34 0 58.5 24t24.5 59v684q0 34 -24.5 58.5t-58.5 24.5h-684zM365 711h98v-575h-143v531q0 18 13 31t32 13zM535 711h145v-242q0 -19 -13 -32t-32 -13h-100v287zM535 279h145v-98q0 -19 -13 -32 t-32 -13h-100v143z" />
<glyph unicode="&#xf06e;" d="M500 848q-115 0 -215 -58q-96 -57 -152 -153q-58 -99 -58 -214.5t58 -214.5q56 -96 152 -152q100 -58 215 -58t215 58q96 56 152 152q58 99 58 214.5t-58 214.5q-56 96 -152 153q-100 58 -215 58zM432 589h112q36 0 66.5 -17.5t48.5 -47t18 -65t-18 -65t-48.5 -47 t-66.5 -17.5h-78l-111 -106v290q0 31 22.5 53t54.5 22z" />
<glyph unicode="&#xf080;" d="M499 798q-166 0 -280 -117q-58 -58 -88.5 -131t-30.5 -152.5t30 -152t87.5 -130t130 -87.5t152 -30t153.5 30.5t133 88.5q56 55 85 127t29 153.5t-29.5 154t-85.5 128.5q-118 118 -286 118zM501 725q135 0 232 -96q46 -47 70.5 -106t24.5 -125q0 -138 -94 -230 q-48 -47 -108.5 -72t-125 -25t-124 24.5t-106.5 71.5t-72.5 106.5t-25.5 124.5t25.5 124.5t72.5 107.5q94 95 231 95zM389 522q-50 0 -83.5 -33.5t-33.5 -91.5t33 -91t86 -33q34 0 62 17t43 46l-49 25q-14 -34 -49 -34q-27 0 -40.5 19t-13.5 52q0 70 54 70q11 0 23.5 -7 t20.5 -25l54 28q-32 58 -107 58zM621 522q-51 0 -84 -33.5t-33 -91.5t32.5 -91t86.5 -33q33 0 60.5 17t44.5 46l-50 25q-14 -34 -49 -34q-27 0 -40.5 19t-13.5 52q0 70 54 70q11 0 23.5 -7t21.5 -25l52 28q-31 58 -105 58z" />
<glyph unicode="&#xf081;" d="M499 796q-165 0 -281 -116q-118 -120 -118 -284t118.5 -282t280.5 -118q165 0 287 119q114 112 114 280.5t-116 284.5t-285 116zM501 724q135 0 231 -96t96 -232q0 -139 -94 -229q-100 -98 -234 -98t-231 97t-97 229.5t98 232.5q94 96 231 96zM500 654q-56 0 -56 -56 t56 -56t56 56t-56 56zM418 521q-11 0 -18.5 -7.5t-7.5 -18.5v-163h46v-195h124v195h46v163q0 11 -8 18.5t-18 7.5h-164z" />
<glyph unicode="&#xf082;" d="M499 796q-165 0 -281 -116q-118 -120 -118 -284t118 -282t282 -118t286 119q114 112 114 280.5t-116 284.5t-285 116zM501 724q136 0 231 -96q96 -94 96 -232q0 -44 -10 -86l-355 159q-4 5 -4 10q0 17 15 24t33 7q35 0 69 -23l52 53q-45 34 -100 37v62h-47v-62 q-37 -2 -64.5 -21t-37.5 -50l-153 68q20 30 44 54q94 96 231 96zM190 504l204 -92l64 -28l47 -21l39 -16q10 -10 10 -25q0 -21 -14.5 -30.5t-35.5 -9.5q-50 0 -89 37l-55 -56q55 -47 121 -48v-61h47v61q41 4 71.5 28t38.5 61l151 -67q-20 -36 -55 -70q-98 -98 -232.5 -98 t-232 97t-97.5 230q0 58 18 108z" />
<glyph unicode="&#xf083;" d="M500 796q-167 0 -282 -116q-118 -120 -118 -284t118 -282t282.5 -118t285.5 119q114 113 114 281t-116 284t-284 116zM501 724q136 0 231.5 -95.5t95.5 -232.5q0 -45 -10 -85l-220 97h6v48h-113l-46 20q6 14 14 23q29 36 82 36q37 0 74 -16l19 77q-45 20 -100 20 q-47 0 -86.5 -18t-68.5 -51q-11 -13 -22 -32l-132 58q19 29 45 55q94 96 231 96zM190 502l106 -46h-8v-48h38l-1 -31h-37v-48h44q8 -51 36.5 -87.5t71.5 -56t92 -19.5q30 0 60 8q26 6 45 17l-16 74q-13 -6 -32 -11q-23 -6 -45 -6q-56 0 -86 34q-15 17 -22 47h146l206 -92 q-21 -38 -54 -70q-99 -98 -233.5 -98t-231.5 97t-97 230q0 56 18 106zM473 377h1h-1z" />
<glyph unicode="&#xf084;" d="M499 796q-166 0 -281 -116q-118 -120 -118 -284t118 -282t282.5 -118t285.5 119q114 113 114 281t-116 284t-285 116zM501 724q136 0 231.5 -95.5t95.5 -232.5q0 -51 -13 -95l-163 72v29h-62l102 187h-107l-69 -155l-38 17l-63 138h-107l44 -82l-132 58q21 33 50 63 q94 96 231 96zM187 493l204 -91h-45v-63h94l9 -19v-30h-103v-62h103v-90h100v90h103v58l131 -59q-20 -32 -49 -60q-99 -98 -233.5 -98t-231.5 97t-97 230q0 51 15 97zM554 330l88 -40h-93v30z" />
<glyph unicode="&#xf085;" d="M499 796q-165 0 -281 -117q-118 -120 -118 -284t118.5 -281.5t280.5 -117.5q166 0 287 118q114 114 114 281.5t-116.5 284t-284.5 116.5zM501 724q136 0 231 -97q96 -94 96 -231.5t-94 -229.5q-100 -97 -234 -97t-231 96.5t-97 229.5t98 232q94 97 231 96v1zM498 606 q-69 0 -116.5 -40t-59.5 -114h-31l79 -79l79 79h-29q10 71 90 71q44 0 67.5 -33.5t23.5 -96.5q0 -61 -25.5 -97.5t-67.5 -36.5q-84 0 -88 73h-101q10 -75 59.5 -115.5t117.5 -40.5q92 0 150 61t58 153q0 95 -56 155.5t-150 60.5z" />
<glyph unicode="&#xf086;" d="M499 797q-165 0 -281 -117q-118 -120 -118 -284t118.5 -281.5t280.5 -117.5q166 0 287 118q114 114 114 281.5t-116.5 284t-284.5 116.5zM501 724q136 0 231 -96q96 -94 96 -231.5t-94 -229.5q-100 -98 -234 -98t-231 97t-97 230t98 232q94 96 231 96zM361 491v-69h290 v69h-290zM361 362v-68h290v68h-290z" />
<glyph unicode="&#xf087;" d="M500 797q-109 0 -202 -55q-90 -53 -143 -143q-55 -93 -55 -202t55 -202q53 -90 143 -143q93 -55 202 -55t202 55q90 53 143 143q55 93 55 202t-55 202q-53 90 -143 143q-93 55 -202 55zM500 722q88 0 164 -44q73 -44 117 -117q44 -76 44 -164q0 -43 -11 -84l-362 162 q23 42 65 42q23 0 43 -14q7 -5 12 -10l66 67q-52 44 -127 44q-55 0 -97 -23q-40 -21 -65 -60l-121 54q45 68 115 107q73 40 157 40zM193 504l127 -57q-5 -26 -5 -53q0 -74 34 -124q28 -42 77 -63q40 -17 83 -17q62 0 113 35q8 6 15 12l-58 71l-5 -5q-23 -22 -54 -22v0 q-42 0 -66 39q-20 32 -20 77l351 -156q-42 -77 -117 -122q-77 -47 -168 -47q-88 0 -164 44q-73 44 -117 117q-44 76 -44 164q0 55 18 107z" />
<glyph unicode="&#xf088;" d="M486 796q-166 0 -280 -116q-58 -58 -88.5 -131.5t-30.5 -153t30 -151.5t87.5 -129.5t130 -88t152 -30.5t153.5 31t133 88q57 56 85.5 127.5t28.5 153.5t-29 154t-86 129q-117 117 -286 117zM488 724q136 0 232 -96q47 -47 71 -106.5t24 -125.5q0 -137 -94 -229 q-48 -48 -108.5 -72.5t-125 -24.5t-124 24.5t-106.5 71t-72.5 106.5t-25.5 124.5t25.5 124t72.5 107.5q94 96 231 96zM487 626q-90 0 -132 -75q-33 -59 -33 -155t33 -155q42 -75 132 -75t132 75q34 59 34 155t-34 155q-42 75 -132 75zM487 539q7 0 15 -2q17 -14 5 -35 l-88 -161q-3 23 -3 55q0 57 10 89q17 54 61 54zM553 465q5 -28 5 -69q0 -57 -10 -89q-17 -54 -61 -54q-8 0 -15 1l-6 2q-29 13 -11 39z" />
<glyph unicode="&#xf089;" d="M499 796q-165 0 -281 -116q-118 -120 -118 -284t118.5 -282t280.5 -118q166 0 287 119q114 113 114 281t-116.5 284t-284.5 116zM501 724q136 0 231 -97q96 -94 96 -231.5t-94 -228.5q-100 -98 -234 -98t-231 96.5t-97 229.5t98 232q94 97 231 97zM334 620q-8 -2 -14 -8 t-6 -15v-294q0 -9 6.5 -15.5t15.5 -6.5h88v-87q0 -9 6 -15.5t16 -6.5h218q9 0 15.5 6.5t6.5 15.5v294q0 9 -6.5 15.5t-15.5 6.5h-88v87q0 10 -6 16.5t-16 6.5h-220zM358 575h175v-65h-90q-8 -1 -13.5 -7t-5.5 -15v-163h-66v250zM467 467h175v-251h-175v251z" />
<glyph unicode="&#xf08a;" d="M499 796q-165 0 -281 -116q-118 -120 -118 -284t118.5 -282t280.5 -118q166 0 287 119q114 113 114 281t-116.5 284t-284.5 116zM501 724q136 0 231 -97q96 -94 96 -231.5t-94 -228.5q-100 -98 -234 -98t-231 96.5t-97 229.5t98 232q94 97 231 97zM437 622l-108 -47v-113 v-1l-95 -40v-103l102 -44l103 43l217 -90l5 -1l4 1l97 42l7 3v113l-87 37v99zM464 406l183 -75v-3h1v-71l-1 1v-1l-183 76v73zM665 402l59 -25l-64 -27l-58 25zM744 358v-69l-71 -31v70z" />
<glyph unicode="&#xf08b;" d="M97 773v-240h806v240h-806zM97 473v-500h806v500h-806z" />
<glyph unicode="&#xf08c;" d="M-36 774l375 -800l118 253l-255 547h-238zM288 774l246 -527l127 -273l375 800h-748z" />
<glyph unicode="&#xf08d;" d="M505 800q-109 0 -202 -55q-90 -53 -143 -144q-55 -93 -55 -201.5t55 -201.5q53 -91 143 -144q93 -54 202 -54q102 0 191 48q86 48 141.5 130.5t65.5 183.5h-398q-16 0 -27.5 11.5t-11.5 27.5t11.5 27t27.5 11h398q-10 100 -65.5 182.5t-141.5 129.5q-89 49 -191 49z" />
<glyph unicode="&#xf08e;" d="M442 848q-20 -1 -35.5 -15t-17.5 -33q-3 -23 9 -53l3 -6q9 -22 8 -34l-1 -16q-3 -79 -10 -118q-8 13 -24 41q-21 37 -34 54q-20 26 -44 28q-19 2 -36 -11t-20 -32q-1 -9 2 -20q1 -7 7 -20l3 -7q7 -18 21 -57q20 -55 33 -82l8 -15q16 -30 19 -47q6 -28 14 -83l9 -56 q5 -34 11 -50q4 -10 16 -28.5t16.5 -29.5t8.5 -34l9 -43q11 -55 18 -83q43 8 131 25l128 24q43 8 64 16q-2 25 -13 74q-7 30 -10 46q-4 26 -3 47t12 62q7 22 9 33l3 12q6 22 4 33q-3 15 -21 40q-10 15 -14 22.5t-6 17.5v18v8q-1 39 7 117q5 53 6 79q2 45 -2 80q-2 17 -4 26 q-3 14 -8 24q-10 20 -30 26q-14 4 -28.5 1.5t-25.5 -12.5q-18 -16 -26 -50q-6 -23 -12 -68q-5 -39 -9 -58l-10 21q-12 25 -17 38q-7 18 -13 56q-3 23 -6 33q-4 19 -10.5 32t-21 19.5t-30.5 6.5q-7 -1 -22 0zM443 825h2l47 -3l5 -1q12 -3 19 -13l3 -5l4 -11q2 -7 4 -15v0 q1 -9 3 -22l2 -11q2 -21 5 -32q3 -18 9 -31l12 -26q8 -19 15 -33l15 -25l12 -18q2 13 4 29l3 27q4 40 7 59l3 24q5 40 13 58q4 11 9 17l2 2l7 6l7 3q5 2 10 2l3 1q5 0 10 -1l10 -3q10 -3 17 -11l3 -5l3 -5l3 -5q4 -11 6 -24l1 -6l1 -43q0 -19 -1 -42l-9 -119q-3 -49 -3 -90 v-5l1 -13q2 -9 5.5 -15.5t12.5 -18.5q12 -17 15 -27q2 -3 2 -7l1 -5v-12q-1 -13 -4 -29l-5 -19l-13 -55q-4 -17 -3 -30q0 -17 4 -39l15 -66q2 -10 3 -19l1 -9q1 -10 0 -20l-8 15l-4 7l-1 4l-19 94l-4 30l-28 -7l5 5q9 11 13 17l8 12q4 7 6 13q4 13 8 29l8 30l4 26l1 15l-2 9 l-3 11q-4 9 -14 22l-18 24q-15 18 -34 35l-11 10q-11 7 -22 11q-7 2 -17 3v0q-12 2 -36 2h-16v-4q-1 -10 -1 -15l-3 -12l-3 -6q-2 -3 -4 -5t-5 -4l-6 -3q-8 -4 -16 -6l-10 -1l-44 -3q4 -5 10 -10l5 -4q13 -9 29 -17l13 -5l19 -6q10 -3 20 -4l10 -1h5l10 2l4 1q8 3 23 10 t23 9l-5 -6q-9 -10 -23 -19l-11 -6l-14 -8l9 -19l8 -12l10 -10l10 -5l8 -3q7 -2 17 -2h4q7 1 20 3l15 2l-9 -7q-8 -5 -15 -8l-5 -2q-5 -1 -9 -1h-3q-3 -1 -7 0l-8 1q-4 2 -14 5l-11 4l-7 2l-11 1q-8 -2 -17 -8l-25 -19q3 9 9 19l13 23v4q1 5 -2 12l-5 8l-4 7l-6 5 q-6 4 -22 8l-6 1q-15 4 -25 8q-6 3 -12 5q-14 8 -23 19l-3 4l-4 9l-3 8q-1 5 -1 10v14l2 14l4 13l6 12l4 4l2 2q2 1 5.5 2t7.5 1h9l21 -1h40q20 1 30 1h12l36 -4l11 -3l7 -3l10 -6q7 -6 18 -16l17 -16q2 13 3 30l2 58l6 93l4 106q1 19 -2 31l-2 7q-3 9 -8 16q-2 3 -5 5l-5 4 q-4 2 -8.5 2.5t-8.5 0.5q-18 0 -26 -14l-4 -10q-2 -5 -4 -11q-2 -9 -5 -29l-1 -8q-10 -92 -13 -141l-1 -47q10 -2 19.5 -4t19.5 -4q-6 -3 -12 -5l-8 -2l-13 -3q-9 -1 -17 -2l-18 -1l15 19l-16 35l-14 26q-10 16 -14 25l-1 3l-18 39q-2 -21 -2 -63l-1 -38v-39l25 -10l-4 -1 q-11 -5 -16.5 -6.5t-10.5 -2.5l-5 -1l-10 1l-8 2l-8 4l-11 6l30 3q4 36 1 69l-3 1q-42 12 -61 23l16 -1l16 -2l33 -5q1 9 2 19l1 10v19q0 13 -1 29q-14 4 -33 6l-33 5q14 8 33 8q13 0 35 -3q-1 25 -6 55l-3 18l-3 18q-3 10 -7 17l-3 4l-5 3l-7 3l-5 1q-6 0 -11 -2l-2 -1 q-2 -2 -4 -3l-3 -3l-5 -7q-3 -5 -5 -12l-5 -15q-3 -14 -5 -42l-6 -53q-3 -21 -4 -33l-5 -114l-1 -34l27 5l-11 -13q-7 -8 -13.5 -12t-16.5 -7q-6 -2 -18 -4l15 20l-32 60q-26 49 -43 79l-12 19l-11 14q-6 6 -12 7l-2 1q-3 0 -6 -1l-4 -1l-9 -3l-4 -3l-4 -3l-2 -4t-1.5 -4.5 t0.5 -4.5l1 -11l3 -10q2 -7 4 -15l18 -44l18 -51q5 -15 10 -26l7 -16l12 -24l23 -46l10 -1q14 0 30 -2l-19 -8q-11 -5 -19 -7q2 -17 7 -49l8 -57q5 -38 14 -55l7 -12l8 -10l6 -5q9 -6 28 -16l13 -7l-28 -1l5 -29l19 -87q1 -4 2 -9v-13q-1 -6 -2 -14q-9 23 -18 72l-7 34 l-5 19l-3 9l-7 18q-3 6 -7 13l-13 19q-7 12 -11 20q-2 5 -4 11q-2 9 -4 23l-9 63q-4 32 -8 52l-6 25l-3 9q-3 8 -7 17l-5 12l-9 16l-11 24l-7 16l-27 75l-23 58l-3 14q-1 7 0 13l1 3l2 6l8 8l6 4l7 3q4 1 8.5 2t9.5 0h5q8 -2 14 -7l4 -5l8 -10l37 -62l26 -49q13 -26 23 -42 q2 20 2 59l2 48l6 85v12l-1 4l-2 11l-8 21q-3 9 -5 17v0q-2 7 -3 13l-1 9q-1 7 0 14l1 6l5 10l5 6l8 6l9 4zM453 817q-12 0 -21.5 -5t-12.5 -16q-5 -23 13 -58l4 13q10 45 20 66h-3zM646 689h6l14 -1l13 -3q6 -2 13 -4l6 -3q-11 -2 -19 -3l-5 -1q-7 0 -13 1.5t-11 3.5l-16 9 zM346 601q-2 -2 -4 -6v0q-4 -5 -7 -9l-2 -3l-6 -4l-6 -4l-7 -3l-14 -3l4 5l8 8l14 10q9 5 20 9zM658 596h4l5 -1q8 -1 19 -8l6 -4q-16 -1 -31 2v0q-9 1 -19 4l-11 4l19 2zM377 539q0 -1 -2 -3l-9 -8l-9 -7q-13 -9 -30 -16q15 20 26 27q5 2 12 4zM472 481q-7 -22 -11 -41 l36 -3h9l9 1l9 1l9 3q4 1 8 5l1 2q2 3 4 9l5 16q-33 4 -59 6z" />
<glyph unicode="&#xf08f;" d="M497 847q-95 -1 -179.5 -41.5t-144.5 -111.5q-62 -75 -85 -169q-28 -112 4 -222q31 -107 111 -185q82 -80 194 -108t222 4q107 32 185 111q80 82 108 194t-4 223q-32 106 -111 184q-82 81 -194 108q-53 14 -106 13zM483 699l46 -12l-19 -75l38 -8l18 74l47 -11l-19 -77 q49 -17 72 -40q27 -28 21 -67q-8 -57 -59 -69q33 -17 44 -43q13 -29 -1 -70q-18 -50 -62 -64q-37 -11 -103 1l-19 -77l-47 12l19 76l-37 9l-19 -76l-47 11l20 78l-94 24l23 53l17 -5q17 -4 17 -3q15 -4 21 11l31 122l5 -1l-5 1l21 88q2 21 -21 27l-34 8v0l12 50l65 -16h-1 l30 -8zM498 557l-23 -93l7 -2q41 -11 64 -10q41 0 49 32t-27 51q-19 11 -61 20zM463 417l-26 -102l9 -3q50 -13 77 -13q49 0 58 35t-34 57q-23 12 -73 24z" />
<glyph unicode="&#xf090;" d="M351 847v-129h-50v0h-108v-84l29 1q29 0 28 -1q39 0 45 -34v-147h8h-8v-206q-1 -10 -7 -16q-8 -10 -22 -10h-29h-28l-16 -93l158 -1v-130h78v129q31 -1 63 -1v-128h78v130q110 6 163 39q65 39 73 126q6 71 -25 111q-28 36 -88 51q77 39 68 131q-7 65 -61 98 q-45 28 -130 35v129h-78v-125l-63 -1v126h-78zM471 630q60 0 94 -13q50 -19 49 -67q0 -52 -65 -69q-36 -10 -105 -9h-13v157zM479 394q72 0 112 -14q60 -20 60 -73q0 -41 -39 -62q-30 -17 -84 -22q-30 -3 -81 -2h-16v172z" />
<glyph unicode="&#xf091;" d="M457 683l-432 -249v-100l345 199v-399l87 -49v598zM543 683v-100l346 -199l-346 -200v-99l432 249v100zM543 483v-199l173 100zM284 384l-173 -100l173 -100v200z" />
<glyph unicode="&#xf092;" d="M530 948q-84 0 -154 -35t-110 -98q-13 -13 -36 -26q-20 -12 -28 -14q-12 -3 -19 -12.5t-6 -20.5q1 -10 8 -18t20 -13l-6 -6q-19 -23 -15 -47q1 -5 3 -9q-41 -69 -41 -149q0 -20 3 -40q-6 2 -13 2q-15 0 -28 -6.5t-23 -17.5q-21 -26 -13 -64q5 -24 28.5 -56t53.5 -56 q33 -27 61 -33q9 -2 17 -2q24 0 37 18q3 6 5 12q62 -42 137 -50q7 -23 26 -33q13 -7 31 -7q41 0 67 31h5q20 0 42 3q-38 -42 -91 -68q-49 -24 -92 -24v0q-51 0 -72 34q-16 29 -41 45t-52.5 16t-45 -18t-18.5 -47q-1 -32 32 -66q30 -31 76 -52q53 -23 106 -23q25 0 48 5 q66 16 125.5 54t102.5 91t60 111q59 46 86 142q22 83 17 185q-5 92 -28 157q-4 13 -9 24h15q17 0 34 4q31 10 54 28q20 16 31 36q11 18 10 32q0 11 -6 19t-14.5 10t-49.5 2h-86q-60 0 -90 1q-63 46 -144 49h-10zM530 917v0l25 -1q14 -1 27 -4l11 -3q15 -4 29 -10l17 -8 l16 -9l-2 -2l-2 -4l-1 -4l1 -5l4 -8q3 -5 8 -10l14 -12l25 -19l33 -19l2 -4q8 -13 15 -27l6 -13l8 -22v0l9 -29q5 -18 8 -40q6 -33 8 -69q4 -51 0 -99l-3 -25q-2 -17 -5 -33l-6 -24l-7 -26l-13 -32l-12 -23l-12 -18l-14 -16q-11 -11 -23 -19l-12 -8l-12 -7q-11 -7 -23 -12 l-11 -5l-16 -6q-18 -6 -35 -9l-14 -2l-17 -2q-8 -1 -17 0q4 9 6 18l4 15l3 14l1 18v9q0 10 -2 20l-3 16l-6 19l9 15l10 13l9 8l10 8l9 6q21 11 47 14l15 1l16 -2l11 -2q10 -2 18 -6v0q5 -2 9 -5l4 -2q4 -4 7 -8q1 -1 3 -2v0q4 -2 8 1l2 3l1 3l-2 5l-8 8l-11 8q3 9 5 18l2 10 l3 33l1 23l-2 24l-3 20l-3 12l3 -1h5q2 1 3 2l1 2q1 2 1 5l-2 3l-50 44l-23 18l-12 7l-15 9l-20 8l-19 5l-21 3q-8 0 -18 -1l-15 -2q-10 -1 -24 -4l-17 -4l-36 -7q-9 -1 -15 0q-12 1 -21 7l-9 7q-2 3 -2 6q-2 6 1 14l7 11l16 15l11 8q6 3 13 6l13 6l17 6l18 4q9 1 19 2l15 1 l16 -1q16 -1 30 -4l6 -2q9 -2 17 -5l4 -1q2 0 3 1l3 4l1 3q0 2 -1 4l-1 1q-1 1 -3 2l-14 5q-19 5 -39 7l-10 1h-15v2l1 3l-2 4q-1 1 -3 2h-5q-19 -6 -32 -9l-12 -3q-34 -6 -60 2l-11 3l-18 9q-2 0 -3.5 -0.5t-3.5 -1.5l-1 -2q-3 -4 -6 -9l-8 -8l-6 -5l-14 -9q-10 -6 -21 -11 l-10 -3q-6 -3 -12 -4l-4 -1h-6l-7 3l-5 5q-4 5 -7 11v2q-2 4 -2 8v13l4 15q3 8 9 17l15 22l38 40l53 33l59 21zM669 869h3l50 -2h100l77 -1l-2 -8l-3 -8l-10 -13q-22 -25 -58 -36q-9 -3 -19 -4h-6l-15 1q-13 2 -26 7l-19 8q-10 5 -20 11l-14 9l-14 11l-17 15l-10 10h3z M502 860q-6 0 -10.5 -4.5t-4.5 -11t4.5 -11t10.5 -4.5t10.5 4.5t4.5 11t-4.5 11t-10.5 4.5zM411 819h-1h-2q-22 -2 -31.5 -9.5t-7.5 -14.5t12 -8l2 -1q9 -1 13 0t13 8t10 16t-8 9zM325 817q-7 0 -11.5 -4.5t-4.5 -10.5t4.5 -10.5t11 -4.5t11 4.5t4.5 10.5t-4.5 10.5 t-10.5 4.5zM263 773q-1 -1 -1 -2l-2 -12q-1 -5 0 -11v-4q-17 -5 -30 -5h-10q-7 1 -10 4l-2 2h1q4 1 10 4l6 2q18 9 38 22zM256 705h1h1l5 -4q2 -2 3 -4l3 -10l-2 -13q-3 -7 -9 -13q-10 -10 -22 -12h-9l-4 1q-3 2 -5 4l-1 2l-3 9v5l4 9l4 6l4 5q9 9 20 13l4 1q3 1 6 1z M345 700q24 0 48 -9q-4 -8 -4 -16q-25 12 -51 11q-29 0 -56 -15q2 7 2 13q26 13 54 16h7zM400 652q13 -14 36 -16q11 -1 29 2q32 -43 35 -98q2 -50 -24 -98q-10 5 -19 5q25 43 23 91q-2 45 -25 82q5 -25 -1 -51q-7 -32 -27 -94q-12 -38 -17 -57q-5 -10 -6 -23l-3 -10l2 2 q0 -10 2 -23q-40 -25 -83 -24q-47 3 -88 39q-38 34 -50 81q-12 44 -0.5 90.5t39.5 83.5q4 -1 9 -1h2q-11 -12 -20 -27q4 1 12 5q15 6 24 4q2 0 1.5 -4t-3 -6.5t-8 -4t-7.5 -2.5q2 -46 13.5 -87.5t38.5 -94.5q1 35 6 68q3 19 12 53v0q-8 24 -12 39q-2 10 -6 31v0 q-13 -1 -15.5 -0.5t-1.5 4.5v0q1 8 7 9l40 3q39 4 40 3q6 -6 -3 -10q-5 -2 -20 -4q11 -46 29 -94q12 -34 35 -90q6 26 14 59v0q13 39 11.5 62.5t-17.5 46.5q-27 41 -4 56zM201 581q-16 -39 -14 -80q2 -43 24 -77q24 -38 67 -57q-41 61 -58.5 109.5t-18.5 104.5zM310 514 q-11 -51 -13 -92q-2 -29 2 -62q16 -3 32 -2q22 1 47 13q-4 5 -22 41q-26 50 -46 102zM136 431h2l4 -1l10 -2l8 -4l6 -4l6 -5q5 -5 12 -14v0q24 -33 51 -89l6 -13l3 -9q2 -9 2 -18q-1 -3 -1 -6l-2 -4l-5 -4q-3 -1 -6 -1l-10 1l-8 3q-12 5 -26 14v0q-20 14 -40 34v0 q-18 19 -30.5 38.5t-15.5 33.5q-5 21 6 35l4 5l4 4l3 2l8 3zM453 427q6 0 12 -3l10 -6l16 -15l28 -43l10 -33q7 -31 0 -60l-6 -23l-3 -7l-6 -12l-7 -9l-10 -8l-6 -3l-6 -3l-7 -1l-10 -1h-6l-6 1l-4 2q-2 2 -4 3l-3 5l-4 11q-1 6 -1 15v41v18l-9 46l-7 36q-1 19 4 31l4 5l9 9 q6 4 12 4zM687 256q-4 -10 -8 -19.5t-9 -18.5l-17 -28l-9 -13q-7 -9 -14 -17l-7 -8q-28 -31 -63 -57l-10 -6q-14 -10 -29 -18l-15 -8l-16 -8l-26 -10l-11 -4l-28 -8l-9 -2q-12 -2 -23 -2h-10h-13q-13 1 -26 4l-6 1l-22 6l-17 6l-17 8l-16 8l-14 9l-20 16l-13 13l-7 9 q-11 16 -11 28t4 20l3 5q6 8 15.5 10t18.5 1l10 -3l11 -4q6 -4 12 -9l10 -9q9 -9 16 -20l10 -14l8 -8l10 -8l13 -7l13 -6q18 -6 39 -6h17l21 2l26 6q45 13 88 42l19 15l22 19l20 20l6 8l22 30l7 12q11 5 22 10.5t23 12.5z" />
<glyph unicode="&#xf093;" d="M500 904q-122 0 -227 -56q-102 -55 -162 -149q-61 -96 -61 -208.5t61 -208.5q60 -94 162 -148q105 -57 227 -57q83 0 161 27q4 2 8.5 0.5t7.5 -5.5q28 -38 70 -64t92 -37q6 -1 9 4.5t0 9.5q-26 33 -34 73.5t2.5 80t38.5 70.5v0q45 54 70 118q25 66 25 137q0 112 -61 208 q-60 94 -162 149q-105 56 -227 56zM499 712q5 0 8.5 -2.5t4.5 -6.5l48 -137l146 -3q9 0 12 -9t-5 -15l-115 -88l42 -139q2 -9 -5.5 -14.5t-15.5 -0.5l-119 84l-119 -84q-8 -5 -15.5 0.5t-5.5 14.5l42 139l-115 88q-8 6 -5 15t12 9l146 3l47 137q3 9 12 9z" />
<glyph unicode="&#xf094;" d="M336 897l-6 -10q-3 -4 -11 -35.5t-16 -71.5l-91 -423q-70 -327 -70 -338t6 -16l1 -1l2 -5h79q51 0 101 1q63 0 72 3q3 1 4 2q3 3 4 37.5t1 117.5v150l93 35l88 -33q1 -3 2 -8l2 -144q0 -78 1 -107.5t2.5 -38t2 -9.5t9.5 -3t63 -2q50 -2 100 -1h74l2 5l1 1q2 2 4 7t2 10 q0 11 -50 270l-104 542q-4 20 -9 37t-8 20.5t-14.5 5t-48.5 2.5h-114h-2h-172zM505 716h2q11 -1 22 -3q32 -8 53.5 -31.5t26 -54.5t-9.5 -61q-8 -19 -23.5 -33t-36.5 -21q-35 -13 -69 0q-32 12 -51.5 40.5t-19.5 61.5q0 35 26 63q34 39 80 39z" />
<glyph unicode="&#xf095;" d="M500 736q-73 0 -137 -32q-63 -30 -107.5 -84t-62.5 -122h170q21 37 58 58t79.5 21t79 -21t58 -57.5t21.5 -79.5t-21.5 -79.5t-58 -58t-79 -21.5t-79.5 21.5t-58 58.5h-170q18 -68 62.5 -122.5t107.5 -84.5q64 -31 137 -31t138 31q62 30 107 84.5t62 122.5h162 q12 80 0 158h-162q-17 68 -62 122t-107 84q-65 32 -138 32zM193 340q-10 38 -10 78.5t10 79.5h-161q-7 -39 -7 -79t7 -79h161z" />
<glyph unicode="&#xf099;" d="M495 786q-59 0 -115.5 -20t-98.5 -57q-46 -40 -68 -93q-11 -24 -15 -50q-29 30 -66 30q-29 0 -53 -18t-38 -49.5t-14 -69t14 -68.5t38 -49.5t53 -18.5q18 0 35 8q-14 -36 -14 -73.5t16 -71.5q31 -73 107 -120q68 -42 154 -54q102 -14 195 11q102 28 166 99q39 42 51 99.5 t-8 108.5q17 -7 34 -7q29 0 53 18.5t38 49.5t14 68.5t-14 69t-38 49.5t-53 18q-37 0 -66 -31q-13 76 -64 127q-45 46 -109 71q-61 23 -129 23h-5zM622 681q18 0 36 -6q38 -11 65 -43q24 -30 34 -70.5t4 -79.5q1 -10 -2 -23q-3 -8 -9 -22q-11 -24 -10 -34q0 -16 21 -26 q31 -30 41 -74q9 -42 -3 -85.5t-40 -74.5q-52 -55 -136 -78q-71 -20 -158 -15q-79 5 -142 34q-73 34 -107 96q-18 32 -21 70.5t9 72.5q14 37 42 60q16 9 15 24q-1 9 -11 29q-7 15 -9 23q-4 13 -2 23q-6 39 4 79.5t35 70.5q27 32 65 44q15 4 29 5q40 2 76 -23q34 -23 52 -61 q16 36 50 59.5t72 24.5zM416 502q-18 0 -30 -15.5t-12 -37.5t12 -37.5t29.5 -15.5t30 15.5t12.5 37.5t-12.5 37.5t-29.5 15.5zM584 502q-17 0 -29.5 -15.5t-12.5 -37.5t12.5 -37.5t30 -15.5t29.5 15.5t12 37.5t-12 37.5t-30 15.5zM721 353q-2 -1 -4 -1q-97 -37 -217 -37 t-217 37q-3 1 -6 0.5t-5.5 -3t-3 -6t1.5 -7t5 -4.5q102 -39 225 -39t224 39q4 1 6 4.5t1.5 7.5t-3.5 6.5t-7 2.5z" />
</font>
</defs>
</svg>
